Loading...
Error

Напряги извилины / Get Smart / Сезон: 1-5 из 5 / Серии: 1-138 из 138 (Норман Эбботт, Дон Адамс, Дэвид Александр) [1965-1970, комедия, DVDRip] MVO ("Фильм экспорт" по заказу СТС) + MVO (ДТВ) + Original

Статистика раздачи
Размер:  57.76 GB   |    Зарегистрирован:  3 месяца 8 дней   |    Скачан:  3 раза
Сидов:  1  |  33 KB/s  ]   Личеров:  0  |  0 KB/s  ]

* - сиды/пиры с внешних источников

   
 
Автор Сообщение

Renesans Пол:Муж

27-Июн-2022 16:23

Напряги извилины / Get Smart


Год выпуска: 1965 - 1970
Страна: США
Жанр: комедия
Продолжительность: 00:25:35

Перевод: Профессиональный (многоголосый закадровый) - "Фильм экспорт" по заказу СТС
Перевод: Профессиональный (многоголосый закадровый) - ДТВ
Первую серию сериала перевёл и озвучил - ID_Daemon

Режиссёр: Норман Эбботт, Дон Адамс, Дэвид Александр

В ролях: Дон Адамс, Барбара Фелдон, Майкл Данн, Вито Скотти, Джанин Грэй, Келтон Гарвуд, Карен Норрис, Эдвард Платт

Описание: Максвел Смарт - работник секретной службы, который постоянно создает путаницу, наживая себе проблемы. К счастью, его всегда выручает его напарница, агент «99».

Сэмпл 1 | Сэмпл 2 | Сэмпл 3

Качество: DVDRip
Формат: AVI
Видео: 640x480 (1.33:1), 23.976 fps, XviD build 73 ~1993 kbps avg, 0.27 bit/pixe
Аудио: 48 kHz, AC3 Dolby Digital, 2/0 (L,R) ch, ~192 kbps - Фильм Экспорт (1-4 сезоны)
Аудио: 48 kHz, AC3 Dolby Digital, 2/0 (L,R) ch, ~192 kbps - ДТВ (5 сезон)
Аудио: 48 kHz, AC3 Dolby Digital, 2/0 (L,R) ch, ~192 kbps - оригинал
Субтитры: отсутствуют
Реклама: нет
Общее
Полное имя : X:\Уже готовые к раздачам\Get.Smart.1965-1970.DVDRip_[teko]\Season_01\s01e01_Mr.Big.avi
Формат : AVI
Формат/Информация : Audio Video Interleave
Размер файла : 438 Мбайт
Продолжительность : 25 м. 35 с.
Общий поток : 2392 Кбит/сек
Программа кодирования : VirtualDubMod 1.5.10.3 | www.virtualdub-fr.org || (build 2550/release)
Библиотека кодирования : VirtualDubMod build 2550/release

Видео
Идентификатор : 0
Формат : MPEG-4 Visual
Профиль формата : Advanced [email protected]
Настройки формата : BVOP2 / Custom Matrix
Параметр BVOP формата : 2
Параметр QPel формата : Нет
Параметр GMC формата : Без точки перехода
Параметр матрицы формата : Выборочная
Идентификатор кодека : XVID
Идентификатор кодека/Подсказка : XviD
Продолжительность : 25 м. 35 с.
Битрейт : 1994 Кбит/сек
Ширина : 640 пикселей
Высота : 480 пикселей
Соотношение сторон : 4:3
Частота кадров : 23,976 (24000/1001) кадра/сек
Цветовое пространство : YUV
Субдискретизация насыщенности : 4:2:0
Битовая глубина : 8 бит
Тип развёртки : Прогрессивная
Метод сжатия : С потерями
Бит/(Пиксели*Кадры) : 0.271
Размер потока : 365 Мбайт (83%)
Библиотека кодирования : XviD 73

Аудио #1
Идентификатор : 1
Формат : AC-3
Формат/Информация : Audio Coding 3
Коммерческое название : Dolby Digital
Идентификатор кодека : 2000
Продолжительность : 25 м. 33 с.
Вид битрейта : Постоянный
Битрейт : 192 Кбит/сек
Каналы : 2 канала
ChannelLayout : L R
Частота : 48,0 КГц
Частота кадров : 31,250 кадров/сек (1536 SPF)
Метод сжатия : С потерями
Размер потока : 35,1 Мбайт (8%)
Выравнивание : Разделение по промежуткам
Продолжительность промежутка : 42 мс. (1,00 видеокадр)
Время предзагрузки промежутка : 500 мс.
ServiceKind/String : Complete Main

Аудио #2
Идентификатор : 2
Формат : AC-3
Формат/Информация : Audio Coding 3
Коммерческое название : Dolby Digital
Идентификатор кодека : 2000
Продолжительность : 25 м. 35 с.
Вид битрейта : Постоянный
Битрейт : 192 Кбит/сек
Каналы : 2 канала
ChannelLayout : L R
Частота : 48,0 КГц
Частота кадров : 31,250 кадров/сек (1536 SPF)
Метод сжатия : С потерями
Размер потока : 35,1 Мбайт (8%)
Выравнивание : Разделение по промежуткам
Продолжительность промежутка : 42 мс. (1,00 видеокадр)
Время предзагрузки промежутка : 500 мс.
ServiceKind/String : Complete Main
Релиз группы:


Этот торрент недоступен для скачивания без регистрации, однако доступен по публичной magnet-ссылке (источники с публичных трекеров). Перед использованием ссылки прочтите, пожалуйста Пользовательское соглашение, а также как можно дольше оставайтесь на раздаче! Для того, чтобы скачать сам торрент-файл (который видит больше источников), а также для того, чтобы поблагодарить релизера, вам необходимо зарегистрироваться. Если регистрироваться лень - вы можете также попробовать скачать релиз по нашим партнерским ссылкам ниже. Кроме того, зарегистрированным пользователям не показывается всплывающая реклама при скачивании.

[underver.se].t243522.torrent
Трекер: Зарегистрирован   [ 27.06.2022 16:23 ]  
Статус: проверено (by Robbertta at 27.06.2022 16:36)
Поблагодарили: пока никто не поблагодарил...
Тип торрента: публичный - доступные источники с открытых трекеров: 
Размер: 57.76 GB (занимает 13.2 DVDR, для записи нужно 14 болванок DVDR/RW)
 
 

Яндекс.Метрика powered by Sphinx


В Н И М А Н И Е
Сайт не распространяет и не хранит электронные версии произведений, а лишь бесплатно и без коммерческой выгоды (не требуя взамен платы,
SMS и т.д.) предоставляет доступ к создаваемому пользователями каталогу ссылок на торрент-файлы, которые содержат только списки хеш-сумм.
Убедительная просьба с жалобами обращаться напрямую к пользователю, разместившему торрент файл.

Вверх