Loading...
Error

Бесы в мисс Джонс / Бесноватая мисс Джонас / Der Teufel in Miss Jonas (Эрвин С. Дитрих) [1974 г., Эротика, ужасы, детектив, HDRip-AVC] AVO (Дольский) + Original (Deu)

Статистика раздачи
Размер:  1.94 GB   |    Зарегистрирован:  2 месяца 8 дней   |    Скачан:  12 раз

Полного источника не было: 1 день 16 часов

Сидов:  0  |  0 KB/s  ]   Личеров:  0  |  0 KB/s  ]

* - сиды/пиры с внешних источников

   
 
Автор Сообщение

Renesans Пол:Муж

17-Июл-2022 05:58

Бесы в мисс Джонс / Бесноватая мисс Джонас / Der Teufel in Miss Jonas


Год выхода: 1974
Жанр: Эротика, ужасы, детектив
Режиссер: Эрвин С. Дитрих
В ролях: Криста Фри, Марианн Дюпон, Херберт Фукс, Мишель Жако, Йюрг Корэ, Роман Хубер

Описание:
Фильм начинается с того, что главная героиня подвергается казни на гильотине. Она попадает в ад, где встречается с самим Сатаной. Мисс Джонс пытается убедить властелина тьмы в том, что она еще слишком молода для того, чтобы сгореть в геене огненной и он, поддавшись на ее уговоры дарует ей еще три дня земной жизни...



Страна: Швейцария
Студия: Elite Film
Продолжительность: 01:14:22
Перевод: Авторский одноголосый (Андрей Дольский)

Формат: MKV
Качество: HDRip-AVC
Видео: MPEG-4 AVC, 1024x574, 3340 Кбит/с
Аудио: Русский, немецкий (AC3, 2 ch, 192 Кбит/с)
Субтитры: Английские
x264 [info]: frame I:532 Avg QP:19.51 size: 76063
x264 [info]: frame P:19731 Avg QP:21.15 size: 31744
x264 [info]: frame B:86840 Avg QP:23.40 size: 13776

Общее
Уникальный идентификатор : 34686150899998802801956513856835222053 (0x1A184F465C97C30ACB49FEBD028AFA25)
Полное имя : D:MOVIESBesy.v.miss.Dzhons.1974.HDRip-AVC.ExKinoRay.mkv
Формат : Matroska
Версия формата : Version 4
Размер файла : 1,94 Гбайт
Продолжительность : 1 ч. 14 м.
Общий поток : 3 726 Кбит/сек
Дата кодирования : UTC 2022-07-17 05:06:48
Программа кодирования : mkvmerge v48.0.0 ('Fortress Around Your Heart') 64-bit
Библиотека кодирования : libebml v1.4.0 + libmatroska v1.6.0

Видео
Идентификатор : 1
Формат : AVC
Формат/Информация : Advanced Video Codec
Профиль формата : [email protected]
Настройки формата : CABAC / 11 Ref Frames
Параметр CABAC формата : Да
Параметр RefFrames формата : 11 кадров
Идентификатор кодека : V_MPEG4/ISO/AVC
Продолжительность : 1 ч. 14 м.
Битрейт : 3 340 Кбит/сек
Ширина : 1 024 пикселя
Высота : 574 пикселя
Соотношение сторон : 16:9
Режим частоты кадров : Постоянный
Частота кадров : 24,000 кадра/сек
Цветовое пространство : YUV
Субдискретизация насыщенности : 4:2:0
Битовая глубина : 8 бит
Тип развёртки : Прогрессивная
Бит/(Пиксели*Кадры) : 0.237
Размер потока : 1,74 Гбайт (90%)
Библиотека кодирования : x264 core 164 r3081 19856cc
Настройки программы : cabac=1 / ref=11 / deblock=1:-2:-2 / analyse=0x3:0x133 / me=umh / subme=10 / psy=1 / psy_rd=1.05:0.15 / mixed_ref=1 / me_range=32 / chroma_me=1 / trellis=2 / 8x8dct=1 / cqm=0 / deadzone=21,11 / fast_pskip=0 / chroma_qp_offset=-3 / threads=6 / lookahead_threads=1 / sliced_threads=0 / nr=0 / decimate=0 / interlaced=0 / bluray_compat=0 / constrained_intra=0 / bframes=10 / b_pyramid=2 / b_adapt=2 / b_bias=0 / direct=3 / weightb=1 / open_gop=0 / weightp=2 / keyint=240 / keyint_min=24 / scenecut=40 / intra_refresh=0 / rc=2pass / mbtree=0 / bitrate=3340 / ratetol=1.0 / qcomp=0.60 / qpmin=0 / qpmax=69 / qpstep=4 / cplxblur=20.0 / qblur=0.5 / ip_ratio=1.40 / pb_ratio=1.30 / aq=1:1.00
Язык : English
Default : Да
Forced : Нет
Цветовой диапазон : Limited
Основные цвета : BT.709
Характеристики трансфера : BT.709
Коэффициенты матрицы : BT.709

Аудио #1
Идентификатор : 2
Формат : AC-3
Формат/Информация : Audio Coding 3
Коммерческое название : Dolby Digital
Идентификатор кодека : A_AC3
Продолжительность : 1 ч. 14 м.
Вид битрейта : Постоянный
Битрейт : 192 Кбит/сек
Каналы : 2 канала
Channel layout : L R
Частота : 48,0 КГц
Частота кадров : 31,250 кадров/сек (1536 SPF)
Метод сжатия : С потерями
Размер потока : 102 Мбайт (5%)
Язык : Russian
Service kind : Complete Main
Default : Да
Forced : Нет

Аудио #2
Идентификатор : 3
Формат : AC-3
Формат/Информация : Audio Coding 3
Коммерческое название : Dolby Digital
Идентификатор кодека : A_AC3
Продолжительность : 1 ч. 14 м.
Вид битрейта : Постоянный
Битрейт : 192 Кбит/сек
Каналы : 2 канала
Channel layout : L R
Частота : 48,0 КГц
Частота кадров : 31,250 кадров/сек (1536 SPF)
Метод сжатия : С потерями
Размер потока : 102 Мбайт (5%)
Язык : German
Service kind : Complete Main
Default : Нет
Forced : Нет

Текст
Идентификатор : 4
Формат : UTF-8
Идентификатор кодека : S_TEXT/UTF8
Идентификатор кодека/Информация : UTF-8 Plain Text
Продолжительность : 1 ч. 13 м.
Битрейт : 43 бит/сек
Count of elements : 539
Размер потока : 23,1 Кбайт (0%)
Язык : English
Default : Нет
Forced : Нет

Этот торрент недоступен для скачивания без регистрации, однако доступен по публичной magnet-ссылке (источники с публичных трекеров). Перед использованием ссылки прочтите, пожалуйста Пользовательское соглашение, а также как можно дольше оставайтесь на раздаче! Для того, чтобы скачать сам торрент-файл (который видит больше источников), а также для того, чтобы поблагодарить релизера, вам необходимо зарегистрироваться. Если регистрироваться лень - вы можете также попробовать скачать релиз по нашим партнерским ссылкам ниже. Кроме того, зарегистрированным пользователям не показывается всплывающая реклама при скачивании.

[underver.se].t244341.torrent
Трекер: Зарегистрирован   [ 17.07.2022 05:58 ]  
Статус: проверено (by Robbertta at 17.07.2022 06:27)
Поблагодарили: пока никто не поблагодарил...
Тип торрента: публичный - доступные источники с открытых трекеров: 
Размер: 1.94 GB (занимает 0.44 DVDR, для записи нужно 1 болванка DVDR/RW)
 
 

Яндекс.Метрика powered by Sphinx


В Н И М А Н И Е
Сайт не распространяет и не хранит электронные версии произведений, а лишь бесплатно и без коммерческой выгоды (не требуя взамен платы,
SMS и т.д.) предоставляет доступ к создаваемому пользователями каталогу ссылок на торрент-файлы, которые содержат только списки хеш-сумм.
Убедительная просьба с жалобами обращаться напрямую к пользователю, разместившему торрент файл.

Вверх