Loading...
Error

Проституция / La via della prostituzione (Джо Д’Амато) [1978 г., Драма, эротика, BDRemux 1080p] AVO (Дольский) + Original (Eng)

Статистика раздачи
Размер:  18.73 GB   |    Зарегистрирован:  2 месяца 10 дней   |    Скачан:  14 раз

Полного источника не было: 8 часов

Сидов:  0  |  0 KB/s  ]   Личеров:  0  |  0 KB/s  ]

* - сиды/пиры с внешних источников

   
 
Автор Сообщение

Renesans Пол:Муж

17-Июл-2022 17:53

Проституция / La via della prostituzione


Год выпуска: 1978
Жанр: Драма, эротика
Режиссер-постановщик: Джо Д’Амато
Актеры фильма: Лаура Гемсер, Эли Галлеани, Габриэле Тинти, Венантино Венантини, Гота Гоберт, Брайан Рострон, Мануэла Романо, Николя Д’эрамо, Анна Тоффоли

Описание: Журналистка Эммануэль собирает сногсшибательный материал о проституции и продаже девушек в респектабельные ночные заведения Америки.

Под видом женщины, готовой на любые сексуальные эксперименты, она устраивается «на работу» в элитный закрытый клуб в Сан-Диего. Но журналистское расследование, проводимое Эммануэль, становится слишком рискованным.



Страна: США
Студия: Olympic International Films
Продолжительность: 01:28:15
Перевод: Авторский (одноголосый закадровый) Андрей Дольский

Кодек: MPEG-4 AVC
Качество: BDRemux 1080p
Видео: 29994 Кбит/с, 1920x1080
Аудио: Русский, английский (АС3, 2 ch, 192 Кбит/с)
General
Unique ID : 252285479254326630342226752935910109872 (0xBDCC6A789E740EC7685F99C4780AF2B0)
Complete name : E:!!_porvaliparus2021Emanuelle.and.the.White.Slave.Trade.1978.BDRemux.1080p.mkv
Format : Matroska
Format version : Version 4 / Version 2
File size : 18.7 GiB
Duration : 1 h 28 min
Overall bit rate mode : Variable
Overall bit rate : 30.4 Mb/s
Movie name : Emanuelle.and.the.White.Slave.Trade.1978.BDRemux.1080p-porvaliparus
Encoded date : UTC 2021-08-05 07:42:06
Writing application : mkvmerge v60.0.0 ('Are We Copies?') 64-bit
Writing library : libebml v1.4.2 + libmatroska v1.6.4
Cover : Yes
Attachments : cover.jpg
Video
ID : 1
Format : AVC
Format/Info : Advanced Video Codec
Format profile : [email protected]
Format settings, CABAC : Yes
Format settings, ReFrames : 4 frames
Codec ID : V_MPEG4/ISO/AVC
Duration : 1 h 28 min
Bit rate mode : Variable
Bit rate : 30.0 Mb/s
Maximum bit rate : 35.0 Mb/s
Width : 1 920 pixels
Height : 1 080 pixels
Display aspect ratio : 16:9
Frame rate mode : Constant
Frame rate : 23.976 (24000/1001) FPS
Standard : NTSC
Color space : YUV
Chroma subsampling : 4:2:0
Bit depth : 8 bits
Scan type : Progressive
Bits/(Pixel*Frame) : 0.603
Stream size : 18.5 GiB (99%)
Title : Emanuelle.and.the.White.Slave.Trade.1978.BDRemux.1080p
Default : Yes
Forced : No
Color range : Limited
Color primaries : BT.709
Transfer characteristics : BT.709
Matrix coefficients : BT.709
Audio #1
ID : 2
Format : AC-3
Format/Info : Audio Coding 3
Format settings, Endianness : Big
Codec ID : A_AC3
Duration : 1 h 28 min
Bit rate mode : Constant
Bit rate : 192 kb/s
Channel(s) : 2 channels
Channel positions : Front: L R
Sampling rate : 48.0 kHz
Frame rate : 31.250 FPS (1536 spf)
Bit depth : 16 bits
Compression mode : Lossy
Stream size : 121 MiB (1%)
Title : AVO [Андрей Дольский]
Language : Russian
Service kind : Complete Main
Default : Yes
Forced : No
Audio #2
ID : 3
Format : AC-3
Format/Info : Audio Coding 3
Format settings, Endianness : Big
Codec ID : A_AC3
Duration : 1 h 28 min
Bit rate mode : Constant
Bit rate : 192 kb/s
Channel(s) : 2 channels
Channel positions : Front: L R
Sampling rate : 48.0 kHz
Frame rate : 31.250 FPS (1536 spf)
Bit depth : 16 bits
Compression mode : Lossy
Stream size : 121 MiB (1%)
Language : English
Service kind : Complete Main
Default : No
Forced : No
Menu
00:00:00.000 : Глава 01
00:05:00.050 : Глава 02
00:10:00.100 : Глава 03
00:15:00.149 : Глава 04
00:20:00.199 : Глава 05
00:25:00.249 : Глава 06
00:30:00.299 : Глава 07
00:35:00.348 : Глава 08
00:40:00.398 : Глава 09
00:45:00.448 : Глава 10
00:50:00.498 : Глава 11
00:55:00.547 : Глава 12
01:00:00.597 : Глава 13
01:05:00.647 : Глава 14
01:10:00.697 : Глава 15
01:15:00.746 : Глава 16
01:20:00.796 : Глава 17
01:25:00.846 : Глава 18

Этот торрент недоступен для скачивания без регистрации, однако доступен по публичной magnet-ссылке (источники с публичных трекеров). Перед использованием ссылки прочтите, пожалуйста Пользовательское соглашение, а также как можно дольше оставайтесь на раздаче! Для того, чтобы скачать сам торрент-файл (который видит больше источников), а также для того, чтобы поблагодарить релизера, вам необходимо зарегистрироваться. Если регистрироваться лень - вы можете также попробовать скачать релиз по нашим партнерским ссылкам ниже. Кроме того, зарегистрированным пользователям не показывается всплывающая реклама при скачивании.

[underver.se].t244375.torrent
Трекер: Зарегистрирован   [ 17.07.2022 17:53 ]  
Статус: проверено (by Robbertta at 18.07.2022 04:14)
Поблагодарили: пока никто не поблагодарил...
Тип торрента: публичный - доступные источники с открытых трекеров: 
Размер: 18.73 GB (занимает 4.28 DVDR, для записи нужно 5 болванок DVDR/RW)
 
 

Яндекс.Метрика powered by Sphinx


В Н И М А Н И Е
Сайт не распространяет и не хранит электронные версии произведений, а лишь бесплатно и без коммерческой выгоды (не требуя взамен платы,
SMS и т.д.) предоставляет доступ к создаваемому пользователями каталогу ссылок на торрент-файлы, которые содержат только списки хеш-сумм.
Убедительная просьба с жалобами обращаться напрямую к пользователю, разместившему торрент файл.

Вверх