Loading...
Error

Розовые джунгли / The Pink Jungle (Делберт Манн) [1968 г., Боевик, мелодрама, комедия, приключения, HDRip] VO

Статистика раздачи
Размер:  749 MB   |    Зарегистрирован:  2 месяца 8 дней   |    Скачан:  4 раза

Полного источника не было: 1 месяц 4 дня

Сидов:  0  |  0 KB/s  ]   Личеров:  0  |  0 KB/s  ]

* - сиды/пиры с внешних источников

   
 
Автор Сообщение

Renesans Пол:Муж

19-Июл-2022 11:39

Розовые джунгли / The Pink Jungle


Год выпуска: 1968
Жанр: Боевик, мелодрама, комедия, приключения
Режиссёр: Делберт Манн
В главных ролях: Джеймс Гарнер, Ева Ренци, Джордж Кеннеди, Найджел Грин, Майкл Ансара, Джордж Роуз, Фабрицио Миони, Винсент Бек, Вэл Эйвери, Роберт Каррикарт

Описание:
Известный фотограф с помощью одной из своих моделей пытается отыскать затерянную в южноафриканских джунглях алмазную шахту....



Страна: США
Студия: Universal Pictures
Продолжительность: 01:44:15
Перевод: Любительский одноголосый - (Horror Maker)

Кодек: XviD
Качество: HDRip
Видео: 640x272 (2.35:1), 23.976 fps, XviD build 73 ~867 kbps avg, 0.21 bit/pixel
Звук: 48 kHz, MP3, 2 ch, 128 kbps avg
Субтитры: Отсутствуют
General
Complete name : D:Розовые джунгли.1968.HDRip.by.ExKinoRay & Shkiper.avi
Format : AVI
Format/Info : Audio Video Interleave
File size : 749 MiB
Duration : 1 h 44 min
Overall bit rate : 1 004 kb/s
Writing application : VirtualDubMod 1.5.10.3 | www.virtualdub-fr.org || (build 2550/release)
Writing library : VirtualDubMod build 2550/release

Video
ID : 0
Format : MPEG-4 Visual
Format profile : Advanced [email protected]
Format settings : BVOP1 / Custom Matrix
Format settings, BVOP : 1
Format settings, QPel : No
Format settings, GMC : No warppoints
Format settings, Matrix : Custom
Codec ID : XVID
Codec ID/Hint : XviD
Duration : 1 h 44 min
Bit rate : 867 kb/s
Width : 640 pixels
Height : 272 pixels
Display aspect ratio : 2.35:1
Frame rate : 23.976 (24000/1001) FPS
Color space : YUV
Chroma subsampling : 4:2:0
Bit depth : 8 bits
Scan type : Progressive
Compression mode : Lossy
Bits/(Pixel*Frame) : 0.208
Stream size : 646 MiB (86%)
Writing library : XviD 73

Audio
ID : 1
Format : MPEG Audio
Format version : Version 1
Format profile : Layer 3
Codec ID : 55
Codec ID/Hint : MP3
Duration : 1 h 44 min
Bit rate mode : Constant
Bit rate : 128 kb/s
Channel(s) : 2 channels
Sampling rate : 48.0 kHz
Frame rate : 41.667 FPS (1152 SPF)
Compression mode : Lossy
Stream size : 95.4 MiB (13%)
Alignment : Aligned on interleaves
Interleave, duration : 42 ms (1.00 video frame)
Interleave, preload duratio : 504 ms
Writing library : LAME3.99r
Encoding settings : -m s -V 4 -q 2 -lowpass 17 -b 128
Релиз от:
Рип изготовил:

Этот торрент недоступен для скачивания без регистрации, однако доступен по публичной magnet-ссылке (источники с публичных трекеров). Перед использованием ссылки прочтите, пожалуйста Пользовательское соглашение, а также как можно дольше оставайтесь на раздаче! Для того, чтобы скачать сам торрент-файл (который видит больше источников), а также для того, чтобы поблагодарить релизера, вам необходимо зарегистрироваться. Если регистрироваться лень - вы можете также попробовать скачать релиз по нашим партнерским ссылкам ниже. Кроме того, зарегистрированным пользователям не показывается всплывающая реклама при скачивании.

[underver.se].t244417.torrent
Трекер: Зарегистрирован   [ 19.07.2022 11:39 ]  
Статус: T временная (by Robbertta at 19.07.2022 11:47)
Поблагодарили: пока никто не поблагодарил...
Тип торрента: публичный - доступные источники с открытых трекеров: 
Размер: 749 MB (занимает 0.17 DVDR, для записи нужно 1 болванка DVDR/RW)
 
 

Яндекс.Метрика powered by Sphinx


В Н И М А Н И Е
Сайт не распространяет и не хранит электронные версии произведений, а лишь бесплатно и без коммерческой выгоды (не требуя взамен платы,
SMS и т.д.) предоставляет доступ к создаваемому пользователями каталогу ссылок на торрент-файлы, которые содержат только списки хеш-сумм.
Убедительная просьба с жалобами обращаться напрямую к пользователю, разместившему торрент файл.

Вверх