Loading...
Error

Список смертников / The Terminal List / 1 сезон / 1-8 серии из 8 (Фред Туа, Сильвен Уайт, М. Дж. Бассетт) [2022 г., боевик, триллер, драма, WEB-DLRip-AVC] MVO (TVShows) + Sub (Rus, Eng)

Статистика раздачи
Размер:  4.46 GB   |    Зарегистрирован:  2 месяца 6 дней   |    Скачан:  27 раз

Полного источника не было: 2 часа 41 минута

Сидов:  0  |  0 KB/s  ]   Личеров:  0  |  0 KB/s  ]

* - сиды/пиры с внешних источников

   
 
Автор Сообщение

Renesans Пол:Муж

19-Июл-2022 17:18

Список смертников / The Terminal List


Год выхода: 2022
Жанр: боевик, триллер, драма
Режиссер-постановщик: Фред Туа, Сильвен Уайт, М. Дж. Бассетт
Актеры фильма: Крис Прэтт, Констанс Ву, Тейлор Китч, Райли Кио, Арло Мерц, Джинн Трипплхорн, Джаред Шоу, Дж.Д. Пардо, ЛаМоника Гаррет, Кристина Видаль

Описание:
Во время выполнения секретной миссии отряд спецназа попадает в засаду. Единственный выживший в той бойне Джеймс Рис вернулся домой и похоронил своих боевых товарищей. Вскоре он начинает подозревать, что засада была частью заговора теневых структур, а ему и его близким грозит смертельная опасность.



Страна: США
Студия: Berlanti Productions, DC Entertainment, Warner Bros. Television
Продолжительность: 8 x ~ 00:55:00
Перевод: Профессиональный (многоголосый, закадровый) | TVShows
Субтитры: Русские (AMZN), английские (Full, SDH)

Формат: MKV
Качество: WEB-DLRip-AVC
Видео: 1040x442 at 23.976 fps, [email protected], ~1277 kbps
Аудио: AC3, 2 ch, ~192 kbps - | Русский |
Формат субтитров: softsub (SRT)

***Рип от: -=DoMiNo=-
x264 [info]: frame I:620 Avg QP:13.36 size: 41212
x264 [info]: frame P:14548 Avg QP:14.96 size: 14783
x264 [info]: frame B:68028 Avg QP:17.36 size: 3230

General
Unique ID : 237504381834820785595762427436311733052 (0xB2ADAE1A5EEB3C8488A8F1B9366B633C)
Complete name : E:The.Terminal.List.S01E01.The.Engram.mkv
Format : Matroska
Format version : Version 4
File size : 685 MiB
Duration : 1 h 5 min
Overall bit rate : 1 471 kb/s
Encoded date : UTC 2022-07-19 15:43:12
Writing application : mkvmerge v63.0.0 ('Everything') 64-bit
Writing library : libebml v1.4.2 + libmatroska v1.6.4
Cover : Yes
Attachments : cover.jpg / small_cover.jpg

Video
ID : 1
Format : AVC
Format/Info : Advanced Video Codec
Format profile : [email protected]
Format settings : CABAC / 10 Ref Frames
Format settings, CABAC : Yes
Format settings, Reference : 10 frames
Codec ID : V_MPEG4/ISO/AVC
Duration : 1 h 5 min
Bit rate : 1 277 kb/s
Width : 1 040 pixels
Height : 442 pixels
Display aspect ratio : 2.35:1
Frame rate mode : Constant
Frame rate : 23.976 (24000/1001) FPS
Color space : YUV
Chroma subsampling : 4:2:0
Bit depth : 8 bits
Scan type : Progressive
Bits/(Pixel*Frame) : 0.116
Stream size : 595 MiB (87%)
Title : -=DoMiNo=-
Writing library : x264 core 164 by -=DoMiNo=-
Encoding settings : cabac=1 / ref=10 / deblock=1:-2:-1 / analyse=0x3:0x133 / me=umh / subme=10 / psy=1 / psy_rd=1.09:0.20 / mixed_ref=1 / me_range=32 / chroma_me=1 / trellis=2 / 8x8dct=1 / cqm=0 / deadzone=21,11 / fast_pskip=0 / chroma_qp_offset=-3 / threads=17 / lookahead_threads=3 / sliced_threads=0 / nr=0 / decimate=1 / interlaced=0 / bluray_compat=0 / constrained_intra=0 / bframes=10 / b_pyramid=2 / b_adapt=2 / b_bias=0 / direct=3 / weightb=1 / open_gop=0 / weightp=2 / keyint=250 / keyint_min=23 / scenecut=40 / intra_refresh=0 / rc_lookahead=60 / rc=crf / mbtree=0 / crf=20.5 / qcomp=0.60 / qpmin=0 / qpmax=69 / qpstep=4 / vbv_maxrate=50000 / vbv_bufsize=62500 / crf_max=0.0 / nal_hrd=none / filler=0 / ip_ratio=1.35 / pb_ratio=1.25 / aq=3:1.20
Language : English
Default : Yes
Forced : No

Audio
ID : 2
Format : AC-3
Format/Info : Audio Coding 3
Commercial name : Dolby Digital
Codec ID : A_AC3
Duration : 1 h 5 min
Bit rate mode : Constant
Bit rate : 192 kb/s
Channel(s) : 2 channels
Channel layout : L R
Sampling rate : 48.0 kHz
Frame rate : 31.250 FPS (1536 SPF)
Compression mode : Lossy
Stream size : 89.4 MiB (13%)
Title : MVO TVShows
Language : Russian
Service kind : Complete Main
Default : Yes
Forced : Yes

Text #1
ID : 3
Format : UTF-8
Codec ID : S_TEXT/UTF8
Codec ID/Info : UTF-8 Plain Text
Duration : 1 h 4 min
Bit rate : 80 b/s
Count of elements : 700
Stream size : 37.9 KiB (0%)
Language : Russian
Default : No
Forced : No

Text #2
ID : 4
Format : UTF-8
Codec ID : S_TEXT/UTF8
Codec ID/Info : UTF-8 Plain Text
Duration : 1 h 3 min
Bit rate : 54 b/s
Count of elements : 823
Stream size : 25.1 KiB (0%)
Language : English
Default : No
Forced : No

Text #3
ID : 5
Format : UTF-8
Codec ID : S_TEXT/UTF8
Codec ID/Info : UTF-8 Plain Text
Duration : 1 h 4 min
Bit rate : 60 b/s
Count of elements : 972
Stream size : 28.5 KiB (0%)
Title : SDH
Language : English
Default : No
Forced : No

Menu
00:00:00.000 : :Amazon Original
00:00:09.051 : :Scene 2
00:01:11.071 : :Scene 3
00:10:57.157 : :Scene 4
00:12:41.135 : :Scene 5
00:15:44.235 : :Scene 6
00:17:04.023 : :Scene 7
00:20:46.078 : :Scene 8
00:21:56.148 : :Scene 9
00:22:55.124 : :Scene 10
00:24:29.009 : :Scene 11
00:25:44.084 : :Scene 12
00:28:39.009 : :Scene 13
00:33:23.001 : :Scene 14
00:35:02.058 : :Scene 15
00:36:46.204 : :Scene 16
00:37:13.189 : :Scene 17
00:39:46.050 : :Scene 18
00:40:50.073 : :Scene 19
00:44:11.107 : :Scene 20
00:46:36.043 : :Scene 21
00:48:39.083 : :Scene 22
00:51:30.212 : :Scene 23
00:54:05.117 : :Scene 24
00:55:26.156 : :Scene 25
01:01:58.173 : :Scene 26
01:03:32.142 : :End Credits

Этот торрент недоступен для скачивания без регистрации, однако доступен по публичной magnet-ссылке (источники с публичных трекеров). Перед использованием ссылки прочтите, пожалуйста Пользовательское соглашение, а также как можно дольше оставайтесь на раздаче! Для того, чтобы скачать сам торрент-файл (который видит больше источников), а также для того, чтобы поблагодарить релизера, вам необходимо зарегистрироваться. Если регистрироваться лень - вы можете также попробовать скачать релиз по нашим партнерским ссылкам ниже. Кроме того, зарегистрированным пользователям не показывается всплывающая реклама при скачивании.

[underver.se].t244436.torrent
Трекер: Зарегистрирован   [ 19.07.2022 17:18 ]  
Статус: проверено (by Robbertta at 20.07.2022 04:09)
Поблагодарили: пока никто не поблагодарил...
Тип торрента: публичный - доступные источники с открытых трекеров: 
Размер: 4.46 GB (занимает 1.02 DVDR, для записи нужно 2 болванки DVDR/RW)
 
 

Яндекс.Метрика powered by Sphinx


В Н И М А Н И Е
Сайт не распространяет и не хранит электронные версии произведений, а лишь бесплатно и без коммерческой выгоды (не требуя взамен платы,
SMS и т.д.) предоставляет доступ к создаваемому пользователями каталогу ссылок на торрент-файлы, которые содержат только списки хеш-сумм.
Убедительная просьба с жалобами обращаться напрямую к пользователю, разместившему торрент файл.

Вверх