Loading...
Error

Сексуальный Макумба / Macumba sexual (Хесус Франко) [1983 г., Ужасы, эротика, BDRip-AVC] AVO (Севастьянов) + Original (Spa)

Статистика раздачи
Размер:  1.66 GB   |    Зарегистрирован:  2 месяца 9 дней   |    Скачан:  13 раз

Полного источника не было: 4 часа

Сидов:  0  |  0 KB/s  ]   Личеров:  0  |  0 KB/s  ]

* - сиды/пиры с внешних источников

   
 
Автор Сообщение

Renesans Пол:Муж

19-Июл-2022 19:13

Сексуальный Макумба / Macumba sexual


Год выпуска: 1983
Жанр: Ужасы, эротика
Режиссер-постановщик: Хесус Франко
В ролях: Ажита Вилсон, Лина Ромэй, Антонио Маянс, Лорна Грин, Хосе Ферро, Хесус Франко

Описание:
Элис Брукс, американского агента по недвижимости, во время отпуска постоянно мучают кошмары с участием высокой темнокожей женщины Тары и двух ее рабов. Просыпаясь в поту, женщина ищет утешения в объятиях супруга-писателя, работающего над очередной «нетленкой», а вскоре ее отдых прерывает звонок босса, который просит Элис отправиться на соседний остров в поместье принцессы Обонга, которая желает прикупить американский особняк. Соблазненная большими процентами от сделки, Элис отправляется к принцессе, оказавшейся женщиной из ее снов, события которых стали проникать в реальность...



Страна: Испания
Студия: Golden Films Internacional S.A.
Продолжительность: 01:20:20
Перевод: Авторский одноголосый (Никита Севастьянов)

Формат: MKV
Качество: BDRip-AVC
Видео: MPEG-4 AVC, 1024x428, 2574 Кбит/с
Аудио: Русский, испанский (AC3, 2 ch, 192 Кбит/с)
Субтитры: Английские
x264 [info]: frame I:611 Avg QP:19.53 size: 51010
x264 [info]: frame P:23525 Avg QP:20.81 size: 26522
x264 [info]: frame B:91440 Avg QP:22.57 size: 9791

Общее
Уникальный идентификатор : 260157775891062366685522663689563087023 (0xC3B890A96F7243823A02C688A6BB20AF)
Полное имя : D:MOVIESMacumba.sexual.1983.BDRip-AVC.ExKinoRay.mkv
Формат : Matroska
Версия формата : Version 4
Размер файла : 1,66 Гбайт
Продолжительность : 1 ч. 20 м.
Общий поток : 2 960 Кбит/сек
Дата кодирования : UTC 2022-07-19 04:50:44
Программа кодирования : mkvmerge v48.0.0 ('Fortress Around Your Heart') 64-bit
Библиотека кодирования : libebml v1.4.0 + libmatroska v1.6.0

Видео
Идентификатор : 1
Формат : AVC
Формат/Информация : Advanced Video Codec
Профиль формата : [email protected]
Настройки формата : CABAC / 12 Ref Frames
Параметр CABAC формата : Да
Параметр RefFrames формата : 12 кадров
Идентификатор кодека : V_MPEG4/ISO/AVC
Продолжительность : 1 ч. 20 м.
Битрейт : 2 574 Кбит/сек
Ширина : 1 024 пикселя
Высота : 428 пикселей
Соотношение сторон : 2,40:1
Режим частоты кадров : Постоянный
Частота кадров : 23,976 (24000/1001) кадра/сек
Цветовое пространство : YUV
Субдискретизация насыщенности : 4:2:0
Битовая глубина : 8 бит
Тип развёртки : Прогрессивная
Бит/(Пиксели*Кадры) : 0.245
Размер потока : 1,44 Гбайт (87%)
Библиотека кодирования : x264 core 164 r3081 19856cc
Настройки программы : cabac=1 / ref=12 / deblock=1:-2:-2 / analyse=0x3:0x133 / me=umh / subme=10 / psy=1 / psy_rd=1.05:0.15 / mixed_ref=1 / me_range=32 / chroma_me=1 / trellis=2 / 8x8dct=1 / cqm=0 / deadzone=21,11 / fast_pskip=0 / chroma_qp_offset=-3 / threads=6 / lookahead_threads=1 / sliced_threads=0 / nr=0 / decimate=0 / interlaced=0 / bluray_compat=0 / constrained_intra=0 / bframes=10 / b_pyramid=2 / b_adapt=2 / b_bias=0 / direct=3 / weightb=1 / open_gop=0 / weightp=2 / keyint=240 / keyint_min=23 / scenecut=40 / intra_refresh=0 / rc=2pass / mbtree=0 / bitrate=2574 / ratetol=1.0 / qcomp=0.60 / qpmin=0 / qpmax=69 / qpstep=4 / cplxblur=20.0 / qblur=0.5 / ip_ratio=1.40 / pb_ratio=1.30 / aq=1:1.00
Язык : English
Default : Да
Forced : Нет
Цветовой диапазон : Limited
Основные цвета : BT.709
Характеристики трансфера : BT.709
Коэффициенты матрицы : BT.709

Аудио #1
Идентификатор : 2
Формат : AC-3
Формат/Информация : Audio Coding 3
Коммерческое название : Dolby Digital
Идентификатор кодека : A_AC3
Продолжительность : 1 ч. 20 м.
Вид битрейта : Постоянный
Битрейт : 192 Кбит/сек
Каналы : 2 канала
Channel layout : L R
Частота : 48,0 КГц
Частота кадров : 31,250 кадров/сек (1536 SPF)
Метод сжатия : С потерями
Размер потока : 110 Мбайт (6%)
Заголовок : Никита Севастьянов
Язык : Russian
Service kind : Complete Main
Default : Да
Forced : Нет

Аудио #2
Идентификатор : 3
Формат : AC-3
Формат/Информация : Audio Coding 3
Коммерческое название : Dolby Digital
Идентификатор кодека : A_AC3
Продолжительность : 1 ч. 20 м.
Вид битрейта : Постоянный
Битрейт : 192 Кбит/сек
Каналы : 2 канала
Channel layout : L R
Частота : 48,0 КГц
Частота кадров : 31,250 кадров/сек (1536 SPF)
Метод сжатия : С потерями
Размер потока : 110 Мбайт (6%)
Язык : Spanish
Service kind : Complete Main
Default : Нет
Forced : Нет

Текст
Идентификатор : 4
Формат : UTF-8
Идентификатор кодека : S_TEXT/UTF8
Идентификатор кодека/Информация : UTF-8 Plain Text
Продолжительность : 1 ч. 16 м.
Битрейт : 11 бит/сек
Count of elements : 253
Размер потока : 6,74 Кбайт (0%)
Язык : English
Default : Нет
Forced : Нет

Меню
00:00:00.000 : en:Глава 01
00:09:25.565 : en:Глава 02
00:22:45.697 : en:Глава 03
00:36:25.183 : en:Глава 04
00:42:12.196 : en:Глава 05
00:53:37.214 : en:Глава 06
01:06:06.629 : en:Глава 07
01:14:34.136 : en:Глава 08

Этот торрент недоступен для скачивания без регистрации, однако доступен по публичной magnet-ссылке (источники с публичных трекеров). Перед использованием ссылки прочтите, пожалуйста Пользовательское соглашение, а также как можно дольше оставайтесь на раздаче! Для того, чтобы скачать сам торрент-файл (который видит больше источников), а также для того, чтобы поблагодарить релизера, вам необходимо зарегистрироваться. Если регистрироваться лень - вы можете также попробовать скачать релиз по нашим партнерским ссылкам ниже. Кроме того, зарегистрированным пользователям не показывается всплывающая реклама при скачивании.

[underver.se].t244445.torrent
Трекер: Зарегистрирован   [ 19.07.2022 19:13 ]  
Статус: проверено (by Robbertta at 20.07.2022 04:10)
Поблагодарили: пока никто не поблагодарил...
Тип торрента: публичный - доступные источники с открытых трекеров: 
Размер: 1.66 GB (занимает 0.38 DVDR, для записи нужно 1 болванка DVDR/RW)
 
 

Яндекс.Метрика powered by Sphinx


В Н И М А Н И Е
Сайт не распространяет и не хранит электронные версии произведений, а лишь бесплатно и без коммерческой выгоды (не требуя взамен платы,
SMS и т.д.) предоставляет доступ к создаваемому пользователями каталогу ссылок на торрент-файлы, которые содержат только списки хеш-сумм.
Убедительная просьба с жалобами обращаться напрямую к пользователю, разместившему торрент файл.

Вверх