Loading...
Error

Малыш / The Baby (1 сезон: 1-8 серии из 8) (Фараз Шариат, Стэйси Грегг, Элла Джонс) [2022 г., Ужасы, комедия, детектив, WEB-DLRip-AVC] MVO (TVShows) + Original (Eng)

Статистика раздачи
Размер:  5.09 GB   |    Зарегистрирован:  2 месяца 15 дней   |    Скачан:  6 раз

Полного источника не было: 1 месяц 7 дней

Сидов:  0  |  0 KB/s  ]   Личеров:  0  |  0 KB/s  ]

* - сиды/пиры с внешних источников

   
 
Автор Сообщение

Renesans Пол:Муж

20-Июл-2022 20:26

Малыш (1 сезон: 1-8 серии из 8)


Год выхода: 2022
Жанр: Ужасы, комедия, детектив
Режиссёр: Фараз Шариат, Стэйси Грегг, Элла Джонс

В главных ролях: Албие Хиллс, Артхур Хиллс, Мишель де Сварт, Амира Хазалла, Амбер Граппы, Шворн Маркс, Изи Сатти, Сеян Сарван, Софи Рид, Генесис Лынеа

Описание: Однажды ночью 38-летняя Наташа стояла на улице, и в её руки с неба упал младенец. С этого момента он полностью подчинил себе жизнь Наташи, но она не сдаётся и ищет любые способы избавиться от малыша.



Выпущено: США, Великобритания / Home Box Office (HBO)
Продолжительность: 8x ~ 00:30:00
Перевод: Профессиональный (многоголосый закадровый) [TVShows]

Качество: WEB-DLRip-AVC
Формат: MKV
Видео: MPEG-4 AVC/[email protected], 2640 Кбит/сек, 1024x512 (2.008) at 23.976 fps
Аудио #1: Русский: AC3, 2 ch, 192 Кбит/сек
Аудио #2: Английский: AC3, 6 ch, 384 Кбит/сек
Субтитры: английские [вшитые отключаемые]
Общее
Уникальный идентификатор : 304524102929397519335896671825138231339 (0xE5193577F9DC4A177CDF2FDAA8B3282B)
Полное имя : F:1.ФИЛЬМЫ?1. ФИЛЬМЫМалыш The Baby (1 сезон серии 1-8 из 8) (2022)Malysh The Baby (1 sezon serii 1-8 iz 8) (2022) WEB-DLRip-AVCThe Baby S01E01.mkv
Формат : Matroska
Версия формата : Version 4
Размер файла : 721 Мбайт
Продолжительность : 31 м. 16 с.
Общий поток : 3 223 Кбит/сек
Программа кодирования : Lavf
Библиотека кодирования : Lavf
Авторское право : *=Z=*
ErrorDetectionType : Per level 1
Attachments : poster.png
Язык : und

Видео
Идентификатор : 1
Формат : AVC
Формат/Информация : Advanced Video Codec
Профиль формата : [email protected]
Настройки формата : CABAC / 16 Ref Frames
Параметр CABAC формата : Да
Параметр RefFrames формата : 16 кадров
Идентификатор кодека : V_MPEG4/ISO/AVC
Продолжительность : 31 м. 16 с.
Битрейт : 2 640 Кбит/сек
Ширина : 1 024 пикселя
Высота : 512 пикселей
Соотношение сторон : 2,008
Режим частоты кадров : Постоянный
Частота кадров : 23,976 (24000/1001) кадра/сек
Цветовое пространство : YUV
Субдискретизация насыщенности : 4:2:0
Битовая глубина : 8 бит
Тип развёртки : Прогрессивная
Бит/(Пиксели*Кадры) : 0.210
Размер потока : 578 Мбайт (80%)
Заголовок : USA, UK / Home Box Office (HBO)
Библиотека кодирования : x264 core 159 r2991 1771b55
Настройки программы : cabac=1 / ref=16 / deblock=1:-3:-3 / analyse=0x3:0x133 / me=umh / subme=10 / psy=1 / psy_rd=1.00:0.15 / mixed_ref=1 / me_range=32 / chroma_me=1 / trellis=2 / 8x8dct=1 / cqm=0 / deadzone=21,11 / fast_pskip=0 / chroma_qp_offset=-5 / threads=17 / lookahead_threads=4 / sliced_threads=0 / nr=0 / decimate=0 / interlaced=0 / bluray_compat=0 / constrained_intra=0 / bframes=10 / b_pyramid=2 / b_adapt=2 / b_bias=10 / direct=3 / weightb=1 / open_gop=0 / weightp=1 / keyint=240 / keyint_min=24 / scenecut=40 / intra_refresh=0 / rc_lookahead=60 / rc=2pass / mbtree=0 / bitrate=2640 / ratetol=1.0 / qcomp=0.70 / qpmin=1 / qpmax=69 / qpstep=4 / cplxblur=20.0 / qblur=0.5 / vbv_maxrate=5000 / vbv_bufsize=4000 / nal_hrd=none / filler=0 / ip_ratio=1.40 / pb_ratio=1.30 / aq=1:0.60
Язык : English
Default : Да
Forced : Нет
Цветовой диапазон : Limited
Основные цвета : BT.709
Характеристики трансфера : BT.709
Коэффициенты матрицы : BT.709

Аудио #1
Идентификатор : 2
Формат : AC-3
Формат/Информация : Audio Coding 3
Коммерческое название : Dolby Digital
Идентификатор кодека : A_AC3
Продолжительность : 31 м. 16 с.
Вид битрейта : Постоянный
Битрейт : 192 Кбит/сек
Каналы : 2 канала
Channel layout : L R
Частота : 48,0 КГц
Частота кадров : 31,250 кадров/сек (1536 SPF)
Битовая глубина : 32 бит
Метод сжатия : С потерями
Размер потока : 42,9 Мбайт (6%)
Заголовок : MVO (TVshows)
Язык : Russian
Service kind : Complete Main
Default : Да
Forced : Нет

Аудио #2
Идентификатор : 3
Формат : AC-3
Формат/Информация : Audio Coding 3
Коммерческое название : Dolby Digital
Идентификатор кодека : A_AC3
Продолжительность : 31 м. 16 с.
Вид битрейта : Постоянный
Битрейт : 384 Кбит/сек
Каналы : 6 каналов
Channel layout : L R C LFE Ls Rs
Частота : 48,0 КГц
Частота кадров : 31,250 кадров/сек (1536 SPF)
Битовая глубина : 32 бит
Метод сжатия : С потерями
Размер потока : 85,9 Мбайт (12%)
Заголовок : Original (English)
Язык : English
Service kind : Complete Main
Default : Нет
Forced : Нет

Текст
Идентификатор : 4
Формат : ASS
Идентификатор кодека : S_TEXT/ASS
Идентификатор кодека/Информация : Advanced Sub Station Alpha
Метод сжатия : Без потерь
Заголовок : SDH
Язык : English
Default : Да
Forced : Нет
ТРЕЙЛЕР
СЭМПЛ

Этот торрент недоступен для скачивания без регистрации, однако доступен по публичной magnet-ссылке (источники с публичных трекеров). Перед использованием ссылки прочтите, пожалуйста Пользовательское соглашение, а также как можно дольше оставайтесь на раздаче! Для того, чтобы скачать сам торрент-файл (который видит больше источников), а также для того, чтобы поблагодарить релизера, вам необходимо зарегистрироваться. Если регистрироваться лень - вы можете также попробовать скачать релиз по нашим партнерским ссылкам ниже. Кроме того, зарегистрированным пользователям не показывается всплывающая реклама при скачивании.

[underver.se].t244481.torrent
Трекер: Зарегистрирован   [ 20.07.2022 20:26 ]  
Статус: проверено (by Robbertta at 21.07.2022 03:25)
Поблагодарили: пока никто не поблагодарил...
Тип торрента: публичный - доступные источники с открытых трекеров: 
Размер: 5.09 GB (занимает 1.16 DVDR, для записи нужно 2 болванки DVDR/RW)
 
 

Яндекс.Метрика powered by Sphinx


В Н И М А Н И Е
Сайт не распространяет и не хранит электронные версии произведений, а лишь бесплатно и без коммерческой выгоды (не требуя взамен платы,
SMS и т.д.) предоставляет доступ к создаваемому пользователями каталогу ссылок на торрент-файлы, которые содержат только списки хеш-сумм.
Убедительная просьба с жалобами обращаться напрямую к пользователю, разместившему торрент файл.

Вверх