Loading...
Error

Темный рыцарь: Возрождение легенды. Часть 2 / Batman: The Dark Knight Returns, Part 2 (Джей Олива) [2013 г., мультфильм, боевик, BDRip] Dub + Original HQ Underverse

Статистика раздачи
Размер:  1.45 GB   |    Зарегистрирован:  9 лет 8 месяцев   |    Скачан:  24 раза

Полного источника не было: 3 года 10 месяцев

Сидов:  0  |  0 KB/s  ]   Личеров:  0  |  0 KB/s  ]

* - сиды/пиры с внешних источников

   
 
Автор Сообщение

HQ Underverse 

16-Янв-2013 16:38

Темный рыцарь: Возрождение легенды. Часть 2 / Batman: The Dark Knight Returns, Part 2


Год выпуска: 2013
Жанр: мультфильм, боевик
Страна: США
Режиссер: Джей Олива
Роли озвучивали: Питер Уэллер, Эриель Винтер, Дэвид Селби, Пэйджет Брюстер, Майкл Эмерсон, Грэй ДеЛисл, Майкл МакКин, Фрэнк Уэлкер, Ди Брэдли Бейкер, Марк Вэлли
Сюжет фильма:
Тёмный рыцарь и юнный смельчак Кэрри Келли в образе Робина, наконец, освободили Готем-Сити и позволили лучу надежды проникнуть в царство террора, созданное в городе мутантами. Но стоило Бэтману вновь оказаться в центре внимания прессы, как проснулось гораздо худшее зло из Лечебницы Аркхэм - Джокер! Вечный смертельный враг Бэтмена, Джокер строит дьявольскую схему, которая бросит Бэтмена в самые тёмные глубины безумия. Между тем на горизонте возникает новая глобальная катастрофа Готема, и с ней приходит старый знакомый, Человек из Стали, держа Бэтмена на прицеле...

Качество видео: BDRip

Продолжительность: 01:15:49
Формат: avi
Видео: XviD, 720x400, 2085 kbps
Аудио #1: русский, дублированный [лицензия], AC3 2.0, 192 kbps
Аудио #2: английский, оригинал, AC3 5.1, 448 kbps
Субтитры #1: внешние, SRT, русский
Субтитры #2: внешние, SRT, английский

Код:

General
Complete name                    : D:\Video\Movies\Releases\Batman.The.Dark.Knight.Returns.Part.2.2013.BDRip.XviD.AC3.Rus.D.Eng.O.HQ.Underverse.avi
Format                           : AVI
Format/Info                      : Audio Video Interleave
File size                        : 1.45 GiB
Duration                         : 1h 15mn
Overall bit rate                 : 2 740 Kbps
Writing application              : VirtualDubMod 1.5.10.2 (build 2540/release)
Writing library                  : VirtualDubMod build 2540/release

Video
ID                               : 0
Format                           : MPEG-4 Visual
Format profile                   : Streaming [email protected]
Format settings, BVOP            : Yes
Format settings, QPel            : No
Format settings, GMC             : No warppoints
Format settings, Matrix          : Custom
Muxing mode                      : Packed bitstream
Codec ID                         : XVID
Codec ID/Hint                    : XviD
Duration                         : 1h 15mn
Bit rate                         : 2 086 Kbps
Width                            : 720 pixels
Height                           : 400 pixels
Display aspect ratio             : 16/9
Frame rate                       : 23.976 fps
Resolution                       : 24 bits
Colorimetry                      : 4:2:0
Scan type                        : Progressive
Bits/(Pixel*Frame)               : 0.302
Stream size                      : 1.10 GiB (76%)
Writing library                  : XviD 64

Audio #1
ID                               : 1
Format                           : AC-3
Format/Info                      : Audio Coding 3
Codec ID                         : 2000
Duration                         : 1h 15mn
Bit rate mode                    : Constant
Bit rate                         : 192 Kbps
Channel(s)                       : 2 channels
Channel positions                : L R
Sampling rate                    : 48.0 KHz
Stream size                      : 104 MiB (7%)
Alignment                        : Split accross interleaves
Interleave, duration             : 42 ms (1.00 video frame)
Interleave, preload duration     : 500 ms
Title                            : Batman.The.Dark.Knight.Returns.Part.2.2013.AC3.Rus.D.2.0.192.kbps.HQ.Underverse.ac3

Audio #2
ID                               : 2
Format                           : AC-3
Format/Info                      : Audio Coding 3
Codec ID                         : 2000
Duration                         : 1h 15mn
Bit rate mode                    : Constant
Bit rate                         : 448 Kbps
Channel(s)                       : 6 channels
Channel positions                : Front: L C R, Surround: L R, LFE
Sampling rate                    : 48.0 KHz
Stream size                      : 243 MiB (16%)
Alignment                        : Split accross interleaves
Interleave, duration             : 42 ms (1.00 video frame)
Interleave, preload duration     : 500 ms
Title                            : Batman.The.Dark.Knight.Returns.Part.2.2013.AC3.Eng.O.5.1.448.kbps.HQ.Underverse.ac3

Семпл: http://multi-up.com/817806

Релиз группы:

pic pic pic
Для увеличения картинки щелкните мышкой по превью

Этот торрент недоступен для скачивания без регистрации, однако доступен по публичной magnet-ссылке (источники с публичных трекеров). Перед использованием ссылки прочтите, пожалуйста Пользовательское соглашение, а также как можно дольше оставайтесь на раздаче! Для того, чтобы скачать сам торрент-файл (который видит больше источников), а также для того, чтобы поблагодарить релизера, вам необходимо зарегистрироваться. Если регистрироваться лень - вы можете также попробовать скачать релиз по нашим партнерским ссылкам ниже. Кроме того, зарегистрированным пользователям не показывается всплывающая реклама при скачивании.

[underverse.su].t23361.torrent
Трекер: Зарегистрирован   [ 16.01.2013 20:32 ]  
Статус: проверено (by Паукан at 16.01.2013 20:40)
Поблагодарили: 3 человека
Тип торрента: публичный - доступные источники с открытых трекеров: 
Размер: 1.45 GB (занимает 1/3 DVDR, для записи нужно 1 болванка DVDR/RW)
 
 


Последний раз редактировалось: HQ Underverse (16.01.2013 20:33), всего редактировалось 1 раз

16-Янв-2013 20:32

Топик был перенесен из форума Анонсы группы HQ Underverse в форум Мультфильмы HQ


HQ Underverse
 

BlackPanther Пол:Муж

13-Фев-2013 10:35

Благодарствую!

Яндекс.Метрика powered by Sphinx


В Н И М А Н И Е
Сайт не распространяет и не хранит электронные версии произведений, а лишь бесплатно и без коммерческой выгоды (не требуя взамен платы,
SMS и т.д.) предоставляет доступ к создаваемому пользователями каталогу ссылок на торрент-файлы, которые содержат только списки хеш-сумм.
Убедительная просьба с жалобами обращаться напрямую к пользователю, разместившему торрент файл.

Вверх