Loading...
Error

Маша и Медведь: Сладкая жизнь (s 33) (Олег Кузовков, Олег Ужинов, Денис Червяцов, Марина Нефедова) [2013 г., мультфильм, короткометражка, комедия, семейный, HDTVRip] HQ Underverse

Статистика раздачи
Размер:  105 MB   |    Зарегистрирован:  9 лет 3 месяца   |    Скачан:  147 раз

Полного источника не было: 3 года 6 месяцев

Сидов:  0  |  0 KB/s  ]   Личеров:  0  |  0 KB/s  ]

* - сиды/пиры с внешних источников

   
 
Автор Сообщение

Печаль'ka Пол:Жен

03-Июн-2013 11:59

Сладкая жизнь


Год выпуска: 2013
Жанр: мультфильм, короткометражка, комедия, семейный
Страна: Россия
Режиссер: Олег Кузовков, Олег Ужинов, Денис Червяцов, Марина Нефедова
Роли озвучивали: Алина Кукушкина, Борис Кутневич, Эдуард Назаров
Сюжет фильма:
Мультсериал про девочку Машу, которая никому не дает покоя, и в первую очередь — своему другу Медведю.
|
Качество видео: HDTVRip

Продолжительность: 00:06:56
Формат: avi
Видео: XviD, 720x400, 1901 kbps
Аудио: русский, оригинал, MP1 2.0, 192 kbps

Код:

General
Complete name                    : D:\Video\HQ\Masha.i.Medved.HDTVRip.XviD.AC3.Rus.O.HQ.Underverse.avi
Format                           : AVI
Format/Info                      : Audio Video Interleave
File size                        : 105 MiB
Duration                         : 6mn 56s
Overall bit rate                 : 2 103 Kbps
Writing application              : VirtualDubMod 1.5.10.2 (build 2540/release)
Writing library                  : VirtualDubMod build 2540/release

Video
ID                               : 0
Format                           : MPEG-4 Visual
Format profile                   : Streaming [email protected]
Format settings, BVOP            : Yes
Format settings, QPel            : No
Format settings, GMC             : No warppoints
Format settings, Matrix          : Custom
Muxing mode                      : Packed bitstream
Codec ID                         : XVID
Codec ID/Hint                    : XviD
Duration                         : 6mn 56s
Bit rate                         : 1 901 Kbps
Width                            : 720 pixels
Height                           : 400 pixels
Display aspect ratio             : 16/9
Frame rate                       : 25.000 fps
Resolution                       : 24 bits
Colorimetry                      : 4:2:0
Scan type                        : Progressive
Bits/(Pixel*Frame)               : 0.264
Stream size                      : 94.5 MiB (90%)
Writing library                  : XviD 64

Audio
ID                               : 1
Format                           : MPEG Audio
Format version                   : Version 1
Format profile                   : Layer 2
Codec ID                         : 50
Codec ID/Hint                    : MP1
Duration                         : 6mn 56s
Bit rate mode                    : Constant
Bit rate                         : 192 Kbps
Channel(s)                       : 2 channels
Sampling rate                    : 48.0 KHz
Resolution                       : 16 bits
Stream size                      : 9.54 MiB (9%)
Alignment                        : Aligned on interleaves
Interleave, duration             : 40 ms (1.00 video frame)
Interleave, preload duration     : 504 ms

Релиз группы:

picpicpicpic
Для увеличения картинки щелкните мышкой по превью

Этот торрент недоступен для скачивания без регистрации, однако доступен по публичной magnet-ссылке (источники с публичных трекеров). Перед использованием ссылки прочтите, пожалуйста Пользовательское соглашение, а также как можно дольше оставайтесь на раздаче! Для того, чтобы скачать сам торрент-файл (который видит больше источников), а также для того, чтобы поблагодарить релизера, вам необходимо зарегистрироваться. Если регистрироваться лень - вы можете также попробовать скачать релиз по нашим партнерским ссылкам ниже. Кроме того, зарегистрированным пользователям не показывается всплывающая реклама при скачивании.

[underverse.su].t28122.torrent
Трекер: Зарегистрирован   [ 03.06.2013 11:59 ]  
Статус: проверено (by Печаль'ka at 03.06.2013 12:17)
Поблагодарили: 6 человек
Тип торрента: публичный - доступные источники с открытых трекеров: 
Размер: 105 MB (занимает 0.02 DVDR, для записи нужно 1 болванка DVDR/RW)
 
 

Saplex 

06-Сен-2013 00:57

классный мульт всем советую

Яндекс.Метрика powered by Sphinx


В Н И М А Н И Е
Сайт не распространяет и не хранит электронные версии произведений, а лишь бесплатно и без коммерческой выгоды (не требуя взамен платы,
SMS и т.д.) предоставляет доступ к создаваемому пользователями каталогу ссылок на торрент-файлы, которые содержат только списки хеш-сумм.
Убедительная просьба с жалобами обращаться напрямую к пользователю, разместившему торрент файл.

Вверх