Loading...
Error

(French Pop Music) Joe Dassin - Best Of 3 CD L'Album Souvenir (2010) [FLAC (Image+.cue), Lossless]

Статистика раздачи
Размер:  1.49 GB   |    Зарегистрирован:  8 лет 10 месяцев   |    Скачан:  30 раз

Полного источника не было: 1 час 3 минуты

Сидов:  0  |  0 KB/s  ]   Личеров:  0  |  0 KB/s  ]

* - сиды/пиры с внешних источников

   
 
Автор Сообщение

Бишеп Пол:Муж

15-Ноя-2013 10:50

Joe Dassin - Best Of 3 CD L'Album Souvenir

Жанр: French Pop Music
Год выпуска: 2010
Производитель диска: Sony Music - 88697717762
Аудиокодек: FLAC
Тип рипа: Image+.CUE
Битрейт аудио: Lossless
Продолжительность: 03:13:38
Треклист:
Треклист:
01. Il Etait Une Fois Nous Deux
02. Et Si Tu N'existais Pas
03. La Fleur Aux Dents
04. Cecilia
05. Le Petit Pain Au Chocolat
06. Siffler Sur La Colline
07. Dans Les Yeux D'Emilie
08. Depuis L'annee Derniиre
09. Le Chemin De Papa
10. Ma Bonne Etoile
11. Je Change Un Peu De Vent
12. Ca M'avance А Quoi
13. Le Marche Aux Puces
14. L'Albatros
15. Le Temps Des Oeufs Au Plat
16. Salut
17. Guantanamera
18. Me Que Me Que
19. L'Amerique
20. Les Champs Elysees

Exact Audio Copy V1.0 beta 2 from 29. April 2011

Отчёт EAC об извлечении, выполненном 8. июля 2011, 0:54

Joe Dassin / Best Of 3 CD - L'Album Souvenir (CD1)

Дисковод: TEAC DV-W520GM Adapter: 4 ID: 0

Режим чтения : Достоверность
Использование точного потока : Да
Отключение кэша аудио : Да
Использование указателей C2 : Нет

Коррекция смещения при чтении : 6
Способность читать области Lead-in и Lead-out : Нет
Заполнение пропущенных сэмплов тишиной : Да
Удаление блоков с тишиной в начале и конце : Нет
При вычислениях CRC использовались нулевые сэмплы : Да
Интерфейс : Встроенный Win32-интерфейс для Win NT/2000

Выходной формат : Внутренние WAV-операции
Формат сэмплов : 44.100 Гц; 16 бит; стерео

TOC извлечённого CD

Трек | Старт | Длительность | Начальный сектор | Конечный сектор
---------------------------------------------------------------------
1 | 0:00.00 | 3:58.30 | 0 | 17879
2 | 3:58.30 | 3:30.00 | 17880 | 33629
3 | 7:28.30 | 2:11.15 | 33630 | 43469
4 | 9:39.45 | 4:00.45 | 43470 | 61514
5 | 13:40.15 | 3:29.00 | 61515 | 77189
6 | 17:09.15 | 2:39.00 | 77190 | 89114
7 | 19:48.15 | 3:47.00 | 89115 | 106139
8 | 23:35.15 | 3:17.15 | 106140 | 120929
9 | 26:52.30 | 2:30.00 | 120930 | 132179
10 | 29:22.30 | 2:38.00 | 132180 | 144029
11 | 32:00.30 | 2:19.30 | 144030 | 154484
12 | 34:19.60 | 2:36.00 | 154485 | 166184
13 | 36:55.60 | 4:25.00 | 166185 | 186059
14 | 41:20.60 | 3:06.00 | 186060 | 200009
15 | 44:26.60 | 2:53.00 | 200010 | 212984
16 | 47:19.60 | 3:20.30 | 212985 | 228014
17 | 50:40.15 | 2:54.45 | 228015 | 241109
18 | 53:34.60 | 2:38.00 | 241110 | 252959
19 | 56:12.60 | 2:27.00 | 252960 | 263984
20 | 58:39.60 | 2:38.04 | 263985 | 275838

Характеристики диапазона извлечения и сообщения об ошибках

Выбранный диапазон

Имя файла D:\CHANSON\Joe Dassin - 2010 - Best Of 3 CD (L'Album Souvenir)\CD1\Joe Dassin - Best Of 3 CD - L'Album Souvenir (CD1).wav

Пиковый уровень 98.9 %
Скорость извлечения 6.0 X
Качество диапазона 100.0 %
CRC теста A9951888
CRC копии A9951888
Копирование... OK

Ошибок не произошло

AccurateRip: сводка
Трек 1 отсутствует в базе данных
Трек 2 отсутствует в базе данных
Трек 3 отсутствует в базе данных
Трек 4 отсутствует в базе данных
Трек 5 отсутствует в базе данных
Трек 6 отсутствует в базе данных
Трек 7 отсутствует в базе данных
Трек 8 отсутствует в базе данных
Трек 9 отсутствует в базе данных
Трек 10 отсутствует в базе данных
Трек 11 отсутствует в базе данных
Трек 12 отсутствует в базе данных
Трек 13 отсутствует в базе данных
Трек 14 отсутствует в базе данных
Трек 15 отсутствует в базе данных
Трек 16 отсутствует в базе данных
Трек 17 отсутствует в базе данных
Трек 18 отсутствует в базе данных
Трек 19 отсутствует в базе данных
Трек 20 отсутствует в базе данных
Ни одного трека нет в базе AccurateRip

Конец отчёта

==== Контрольная сумма отчёта 3B6C89B4239CCED012DA2848B66C6654A91A1747D1F676B7CF4411A461B005EE ====
pic
Для увеличения картинки щелкните мышкой по превью
Треклист:
01. Salut Les Amoureux
02. Le Dernier Slow
03. La Complainte De L'heure De Pointe
04. La Bande А Bonnot
05. Cote Banjo Cote Violon
06. Si Tu T'appelles Melancolie
07. Mon Village Du Bout Du Monde
08. Viens Voir Le Loup
09. Tout Bйbй А Besoin D'une Maman
10. Comme La Lune
11. Fais Moi De L'electricite
12. Et L'amour S'en Va
13. Vade Retro
14. Le Chвteau De Sable
15. Taka Takata
16. Un Cadeau De Papa
17. Billy Le Bordelais
18. Le Cafй Des Trois Colombes
19. L'equipe А Jojo
20. Les Plus Belles Annйes De Ma Vie

Exact Audio Copy V1.0 beta 2 from 29. April 2011

Отчёт EAC об извлечении, выполненном 8. июля 2011, 1:15

Joe Dassin / Best Of 3 CD - L'Album Souvenir (CD2)

Дисковод: TEAC DV-W520GM Adapter: 4 ID: 0

Режим чтения : Достоверность
Использование точного потока : Да
Отключение кэша аудио : Да
Использование указателей C2 : Нет

Коррекция смещения при чтении : 6
Способность читать области Lead-in и Lead-out : Нет
Заполнение пропущенных сэмплов тишиной : Да
Удаление блоков с тишиной в начале и конце : Нет
При вычислениях CRC использовались нулевые сэмплы : Да
Интерфейс : Встроенный Win32-интерфейс для Win NT/2000

Выходной формат : Внутренние WAV-операции
Формат сэмплов : 44.100 Гц; 16 бит; стерео

TOC извлечённого CD

Трек | Старт | Длительность | Начальный сектор | Конечный сектор
---------------------------------------------------------------------
1 | 0:00.00 | 4:03.60 | 0 | 18284
2 | 4:03.60 | 3:32.00 | 18285 | 34184
3 | 7:35.60 | 1:54.15 | 34185 | 42749
4 | 9:30.00 | 2:53.45 | 42750 | 55769
5 | 12:23.45 | 3:07.00 | 55770 | 69794
6 | 15:30.45 | 3:18.00 | 69795 | 84644
7 | 18:48.45 | 3:20.30 | 84645 | 99674
8 | 22:09.00 | 2:58.30 | 99675 | 113054
9 | 25:07.30 | 3:06.00 | 113055 | 127004
10 | 28:13.30 | 3:38.30 | 127005 | 143384
11 | 31:51.60 | 2:27.00 | 143385 | 154409
12 | 34:18.60 | 3:37.60 | 154410 | 170744
13 | 37:56.45 | 3:03.00 | 170745 | 184469
14 | 40:59.45 | 3:12.00 | 184470 | 198869
15 | 44:11.45 | 2:38.00 | 198870 | 210719
16 | 46:49.45 | 2:22.00 | 210720 | 221369
17 | 49:11.45 | 4:05.00 | 221370 | 239744
18 | 53:16.45 | 4:00.30 | 239745 | 257774
19 | 57:17.00 | 3:11.00 | 257775 | 272099
20 | 60:28.00 | 4:38.03 | 272100 | 292952

Характеристики диапазона извлечения и сообщения об ошибках

Выбранный диапазон

Имя файла D:\CHANSON\Joe Dassin - 2010 - Best Of 3 CD (L'Album Souvenir)\CD2\Joe Dassin - Best Of 3 CD - L'Album Souvenir (CD2).wav

Пиковый уровень 98.9 %
Скорость извлечения 7.9 X
Качество диапазона 100.0 %
CRC теста 6525A544
CRC копии 6525A544
Копирование... OK

Ошибок не произошло

AccurateRip: сводка
Трек 1 : извлечено точно (доверие 2) [25D51FCB] (AR v2)
Трек 2 : извлечено точно (доверие 2) [06B47EC4] (AR v2)
Трек 3 : извлечено точно (доверие 2) [A57FA025] (AR v2)
Трек 4 : извлечено точно (доверие 2) [452AB417] (AR v2)
Трек 5 : извлечено точно (доверие 2) [E5AA9333] (AR v2)
Трек 6 : извлечено точно (доверие 2) [999A1596] (AR v2)
Трек 7 : извлечено точно (доверие 2) [4046E6EE] (AR v2)
Трек 8 : извлечено точно (доверие 2) [35F69742] (AR v2)
Трек 9 : извлечено точно (доверие 2) [2FE5B636] (AR v2)
Трек 10 : извлечено точно (доверие 2) [8B5C354B] (AR v2)
Трек 11 : извлечено точно (доверие 2) [16F1CEC5] (AR v2)
Трек 12 : извлечено точно (доверие 2) [2728669E] (AR v2)
Трек 13 : извлечено точно (доверие 2) [F369C8C1] (AR v2)
Трек 14 : извлечено точно (доверие 2) [8B0BDB4B] (AR v2)
Трек 15 : извлечено точно (доверие 2) [58C6AB13] (AR v2)
Трек 16 : извлечено точно (доверие 2) [8E223B46] (AR v2)
Трек 17 : извлечено точно (доверие 2) [FAC78EC7] (AR v2)
Трек 18 : извлечено точно (доверие 2) [EE102F97] (AR v2)
Трек 19 : извлечено точно (доверие 2) [445727C3] (AR v2)
Трек 20 : извлечено точно (доверие 2) [0A39B646] (AR v2)
Все треки извлечены точно

Конец отчёта

==== Контрольная сумма отчёта 9F7EA77D182771C6355982EBB51E051A40F35616604F607CC466B31E25E8EC77 ====
pic
Для увеличения картинки щелкните мышкой по превью
Треклист:
01. L'ete Indien
02. A Toi
03. Marie Jeanne
04. Excuse Me Lady
05. Ca Va Pas Changer Le Monde
06. Les Dalton
07. Le Moustique
08. Dans La Brume Du Matin
09. Ma Musique
10. La Premiиre Femme De Ma Vie
11. Le Grand Parking
12. Ton Cote Du Lit
13. Ma Derniиre Chanson Pour Toi
14. Un Garзon Nommй Suzy
15. Il Faut Naоtre А Monaco
16. La Demoiselle De Deshonneur
17. Bip Bip
18. Happy Birthday
19. Le Jardin Du Luxembourg (Version Longue)

Exact Audio Copy V1.0 beta 2 from 29. April 2011

Отчёт EAC об извлечении, выполненном 8. июля 2011, 1:57

Joe Dassin / Joe Dassin - Best Of 3 CD - L'Album Souvenir (CD3)

Дисковод: TEAC DV-W520GM Adapter: 4 ID: 0

Режим чтения : Достоверность
Использование точного потока : Да
Отключение кэша аудио : Да
Использование указателей C2 : Нет

Коррекция смещения при чтении : 6
Способность читать области Lead-in и Lead-out : Нет
Заполнение пропущенных сэмплов тишиной : Да
Удаление блоков с тишиной в начале и конце : Нет
При вычислениях CRC использовались нулевые сэмплы : Да
Интерфейс : Встроенный Win32-интерфейс для Win NT/2000

Выходной формат : Внутренние WAV-операции
Формат сэмплов : 44.100 Гц; 16 бит; стерео

TOC извлечённого CD

Трек | Старт | Длительность | Начальный сектор | Конечный сектор
---------------------------------------------------------------------
1 | 0:00.00 | 4:32.45 | 0 | 20444
2 | 4:32.45 | 2:52.45 | 20445 | 33389
3 | 7:25.15 | 4:14.60 | 33390 | 52499
4 | 11:40.00 | 2:30.00 | 52500 | 63749
5 | 14:10.00 | 3:04.00 | 63750 | 77549
6 | 17:14.00 | 2:39.45 | 77550 | 89519
7 | 19:53.45 | 2:19.15 | 89520 | 99959
8 | 22:12.60 | 3:22.30 | 99960 | 115139
9 | 25:35.15 | 2:56.00 | 115140 | 128339
10 | 28:31.15 | 2:23.00 | 128340 | 139064
11 | 30:54.15 | 2:15.30 | 139065 | 149219
12 | 33:09.45 | 3:22.60 | 149220 | 164429
13 | 36:32.30 | 2:42.45 | 164430 | 176624
14 | 39:15.00 | 3:12.30 | 176625 | 191054
15 | 42:27.30 | 1:53.30 | 191055 | 199559
16 | 44:20.60 | 2:48.00 | 199560 | 212159
17 | 47:08.60 | 2:13.00 | 212160 | 222134
18 | 49:21.60 | 4:52.00 | 222135 | 244034
19 | 54:13.60 | 12:00.02 | 244035 | 298036

Характеристики диапазона извлечения и сообщения об ошибках

Выбранный диапазон

Имя файла D:\CHANSON\Joe Dassin - 2010 - Best Of 3 CD (L'Album Souvenir)\CD3\Joe Dassin - Joe Dassin - Best Of 3 CD - L'Album Souvenir (CD3).wav

Пиковый уровень 98.9 %
Скорость извлечения 8.0 X
Качество диапазона 100.0 %
CRC теста 2B9BE1B5
CRC копии 2B9BE1B5
Копирование... OK

Ошибок не произошло

AccurateRip: сводка
Трек 1 : извлечено точно (доверие 2) [2BE564E9] (AR v2)
Трек 2 : извлечено точно (доверие 2) [ED0CE20E] (AR v2)
Трек 3 : извлечено точно (доверие 2) [0CFA276B] (AR v2)
Трек 4 : извлечено точно (доверие 2) [4664C3E5] (AR v2)
Трек 5 : извлечено точно (доверие 2) [881FE089] (AR v2)
Трек 6 : извлечено точно (доверие 2) [8F84780D] (AR v2)
Трек 7 : извлечено точно (доверие 2) [2042196F] (AR v2)
Трек 8 : извлечено точно (доверие 2) [DED0EFE5] (AR v2)
Трек 9 : извлечено точно (доверие 2) [FA9219F9] (AR v2)
Трек 10 : извлечено точно (доверие 2) [7C2E9D03] (AR v2)
Трек 11 : извлечено точно (доверие 2) [BFCEC170] (AR v2)
Трек 12 : извлечено точно (доверие 2) [2E97AEC4] (AR v2)
Трек 13 : извлечено точно (доверие 2) [626CA7ED] (AR v2)
Трек 14 : извлечено точно (доверие 2) [1B4313F9] (AR v2)
Трек 15 : извлечено точно (доверие 2) [F481F53E] (AR v2)
Трек 16 : извлечено точно (доверие 2) [2A3F645E] (AR v2)
Трек 17 : извлечено точно (доверие 2) [4BB4D3E0] (AR v2)
Трек 18 : извлечено точно (доверие 2) [0C6B6942] (AR v2)
Трек 19 : извлечено точно (доверие 2) [DC35BBEE] (AR v2)
Все треки извлечены точно

Конец отчёта

==== Контрольная сумма отчёта DCB380D784043980BF5CE523D2E179A4C382E8742785C595C9A0769BBC165A3E ====
pic
Для увеличения картинки щелкните мышкой по превью

Этот торрент недоступен для скачивания без регистрации, однако доступен по публичной magnet-ссылке (источники с публичных трекеров). Перед использованием ссылки прочтите, пожалуйста Пользовательское соглашение, а также как можно дольше оставайтесь на раздаче! Для того, чтобы скачать сам торрент-файл (который видит больше источников), а также для того, чтобы поблагодарить релизера, вам необходимо зарегистрироваться. Если регистрироваться лень - вы можете также попробовать скачать релиз по нашим партнерским ссылкам ниже. Кроме того, зарегистрированным пользователям не показывается всплывающая реклама при скачивании.

[underverse.su].t33086.torrent
Трекер: Зарегистрирован   [ 15.11.2013 10:50 ]  
Статус: проверено (by Бишеп at 15.11.2013 10:50)
Поблагодарили: 2 человека
Тип торрента: публичный - доступные источники с открытых трекеров: 
Размер: 1.49 GB (занимает 0.34 DVDR, для записи нужно 1 болванка DVDR/RW)
 
 

Яндекс.Метрика powered by Sphinx


В Н И М А Н И Е
Сайт не распространяет и не хранит электронные версии произведений, а лишь бесплатно и без коммерческой выгоды (не требуя взамен платы,
SMS и т.д.) предоставляет доступ к создаваемому пользователями каталогу ссылок на торрент-файлы, которые содержат только списки хеш-сумм.
Убедительная просьба с жалобами обращаться напрямую к пользователю, разместившему торрент файл.

Вверх