Loading...
Error

Discovery: Магия Бена Эрла. Наука / Ben Earl Trick Artist. Science (Саймон Динсел) [2014 г., тв-шоу, SATRip] VO

Статистика раздачи
Размер:  374 MB   |    Зарегистрирован:  8 лет 6 месяцев   |    Скачан:  7 раз

Полного источника не было: 6 лет 7 месяцев

Сидов:  0  |  0 KB/s  ]   Личеров:  0  |  0 KB/s  ]

* - сиды/пиры с внешних источников

   
 
Автор Сообщение

Jimmy Пол:Муж

05-Апр-2014 08:36

Discovery: Магия Бена Эрла. Наука / Ben Earl Trick Artist. Science (2014) SATRip

Режиссер / Телекомпания: Discovery

Русское название: Магия Бена Эрла
Оригинальное название: Ben Earl Trick Artist
Год выпуска: 2014
Жанр: ТВ-Шоу
Выпущено: Magnum Media

Описание:
Бен Эрл — звезда нового магического шоу. Очевидно, что Бен сразу становится конкурентом уже супер популярному Динамо и ему необходимо что-то необычное, чтобы создать свежий образ и не исчезнуть в тени легенд телевизионной магии: Блейна, Энджела, Динамо.
Бен собирается продемонстрировать шулерские техники, эскапизм и далеко не безопасные трюки, такие как, например, ловля пули ртом. «Сюжет шоу — это микс из искусства, науки, криминала и денег — начинаем мы с криминала. Много идей, которые мы воплотили в жизнь, пришли к нам из кино и книг, поэтому будут сумасшедшие вещи» — сказал Бен в одном из интервью. В частности, Бен повторит прыжок с крыши, исполненный Бенедиктом Камбербатчем в сериале «Шерлок».

Режиссер: Саймон Динсел

Актеры: Бен Эрл

Перевод: Профессиональный (одноголосый, закадровый)

Продолжительность: 00:43:44

Видеокодек: XVID
Качество видео: SATRip
Битрейт видео: ~1058 kb/s
Размер кадра: 704 x 400
Аудиокодек: MP3, 2.0ch.
Битрейт аудио: 128 kb/s
Формат : AVI
Формат/Информация : Audio Video Interleave
Размер файла : 374 Мбайт
Продолжительность : 43 м.
Общий поток : 1196 Кбит/сек
Программа кодирования : VirtualDubMod 1.5.10.2 (build 2540/release)
Библиотека кодирования : VirtualDubMod build 2540/release

Видео
Идентификатор : 0
Формат : MPEG-4 Visual
Профиль формата : Advanced [email protected]
Параметр BVOP формата : 1
Параметр QPel формата : Нет
Параметр GMC формата : Без точки перехода
Параметр матрицы формата : Default (H.263)
Идентификатор кодека : XVID
Идентификатор кодека/Подсказка : XviD
Продолжительность : 43 м.
Битрейт : 1058 Кбит/сек
Ширина : 704 пикселя
Высота : 400 пикселей
Соотношение сторон : 16:9
Частота кадров : 25,000 кадров/сек
Цветовое пространство : YUV
Субдискретизация насыщенности : 4:2:0
Битовая глубина : 8 бит
Тип развёртки : Прогрессивная
Метод сжатия : С потерями
Бит/(Пиксели*Кадры) : 0.150
Размер потока : 331 Мбайт (88%)
Библиотека кодирования : XviD 1.2.1 (UTC 2008-12-04)

Аудио
Идентификатор : 1
Формат : MPEG Audio
Версия формата : Version 1
Профиль формата : Layer 3
Идентификатор кодека : 55
Идентификатор кодека/Подсказка : MP3
Продолжительность : 43 м.
Вид битрейта : Постоянный
Битрейт : 128 Кбит/сек
Каналы : 2 канала
Частота : 44,1 КГц
Метод сжатия : С потерями
Размер потока : 40,0 Мбайт (11%)
Выравнивание : Разделение по промежуткам
Продолжительность промежутка : 40 мс. (1,00 видеокадр)
Время предзагрузки промежутка : 500 мс.
Библиотека кодирования : LAME3.98r
Настройки программы : -m s -V 4 -q 2 -lowpass 17 -b 128
Скриншоты:
pic pic pic pic pic
Для увеличения картинки щелкните мышкой по превью

Этот торрент недоступен для скачивания без регистрации, однако доступен по публичной magnet-ссылке (источники с публичных трекеров). Перед использованием ссылки прочтите, пожалуйста Пользовательское соглашение, а также как можно дольше оставайтесь на раздаче! Для того, чтобы скачать сам торрент-файл (который видит больше источников), а также для того, чтобы поблагодарить релизера, вам необходимо зарегистрироваться. Если регистрироваться лень - вы можете также попробовать скачать релиз по нашим партнерским ссылкам ниже. Кроме того, зарегистрированным пользователям не показывается всплывающая реклама при скачивании.

[underverse.su].t37970.torrent
Трекер: Зарегистрирован   [ 05.04.2014 08:36 ]  
Статус: проверено (by Jimmy at 05.04.2014 08:37)
Поблагодарили: пока никто не поблагодарил...
Тип торрента: публичный - доступные источники с открытых трекеров: 
Размер: 374 MB (занимает 0.08 DVDR, для записи нужно 1 болванка DVDR/RW)
 
 

Яндекс.Метрика powered by Sphinx


В Н И М А Н И Е
Сайт не распространяет и не хранит электронные версии произведений, а лишь бесплатно и без коммерческой выгоды (не требуя взамен платы,
SMS и т.д.) предоставляет доступ к создаваемому пользователями каталогу ссылок на торрент-файлы, которые содержат только списки хеш-сумм.
Убедительная просьба с жалобами обращаться напрямую к пользователю, разместившему торрент файл.

Вверх