Loading...
Error

Discovery: Будущее с Джеймсом Вудсом. Как стать суперчеловеком? / Futurescape with James Woods. How to be a Superhuman? (Эми Макуага, Шен Санфорд) [2014 г., научно-популярный, познавательный, фантастика, SATRip] VO

Статистика раздачи
Размер:  415 MB   |    Зарегистрирован:  8 лет 6 месяцев   |    Скачан:  10 раз

Полного источника не было: 6 лет 6 месяцев

Сидов:  0  |  0 KB/s  ]   Личеров:  0  |  0 KB/s  ]

* - сиды/пиры с внешних источников

   
 
Автор Сообщение

Jimmy Пол:Муж

05-Апр-2014 08:42

Discovery: Будущее с Джеймсом Вудсом. Как стать суперчеловеком? / Futurescape with James Woods. How to be a Superhuman? (2014) SATRip

Режиссер / Телекомпания: Discovery

Русское название: Будущее с Джеймсом Вудсом
Оригинальное название: Futurescape with James Woods
Год выпуска: 2014
Жанр: Научно-популярный, познавательный, фантастика
Выпущено: Discovery Channel

Описание:
Представьте, что вы можете читать мысли других людей с помощью своего мобильного телефона, а вместо автомобиля используете костюм из фильма «Железный человек». Вы не страдаете от болезней, потому что даже рак исцеляется с помощью специальных имплантатов. Технологии, которые несколько лет назад встречались только в фантастической литературе, постепенно проникают в повседневную жизнь людей, и будущее, существовавшее только в воображении, начинает обретать форму.
В новой программе Discovery Channel «Будущее с Джеймсом Вудсом» знаменитый актер изучает последние технологические прорывы и их возможные последствия для будущего человечества. Каждая передача посвящена одной потрясающей идее или открытию, способному кардинально изменить привычную нам жизнь. Что происходит в ключевых областях науки? Чем это обернется для нас? Джеймс задаст важные вопросы, начнет дискуссию и при помощи уникальных технологий съемки и компьютерного моделирования покажет потрясающие картины нашего будущего.
Джеймс Вудс рассказывает зрителям о достижениях науки и последствиях, которые они могут иметь в будущем. Он задаст важные вопросы и покажет потрясающие картины нашего будущего.

Режиссер: Эми Макуага, Шен Санфорд

Актеры: Джеймс Вудс

Текст читал: Сергей Казаков
Озвучено: Студия Кириллица
Перевод: Профессиональный (одноголосый, закадровый)

Продолжительность: 00:42:41

Видеокодек: XVID
Качество видео: SATRip
Битрейт видео: ~1222 kb/s
Размер кадра: 704 x 400
Аудиокодек: MP3, 2.0ch.
Битрейт аудио: 128 kb/s
Формат : AVI
Формат/Информация : Audio Video Interleave
Размер файла : 415 Мбайт
Продолжительность : 42 м.
Общий поток : 1360 Кбит/сек
Программа кодирования : VirtualDubMod 1.5.10.2 (build 2540/release)
Библиотека кодирования : VirtualDubMod build 2540/release

Видео
Идентификатор : 0
Формат : MPEG-4 Visual
Профиль формата : Advanced [email protected]
Параметр BVOP формата : 1
Параметр QPel формата : Нет
Параметр GMC формата : Без точки перехода
Параметр матрицы формата : Default (H.263)
Идентификатор кодека : XVID
Идентификатор кодека/Подсказка : XviD
Продолжительность : 42 м.
Битрейт : 1222 Кбит/сек
Ширина : 704 пикселя
Высота : 400 пикселей
Соотношение сторон : 16:9
Частота кадров : 25,000 кадров/сек
Цветовое пространство : YUV
Субдискретизация насыщенности : 4:2:0
Битовая глубина : 8 бит
Тип развёртки : Прогрессивная
Метод сжатия : С потерями
Бит/(Пиксели*Кадры) : 0.174
Размер потока : 373 Мбайт (90%)
Библиотека кодирования : XviD 1.2.1 (UTC 2008-12-04)

Аудио
Идентификатор : 1
Формат : MPEG Audio
Версия формата : Version 1
Профиль формата : Layer 3
Идентификатор кодека : 55
Идентификатор кодека/Подсказка : MP3
Продолжительность : 42 м.
Вид битрейта : Постоянный
Битрейт : 128 Кбит/сек
Каналы : 2 канала
Частота : 44,1 КГц
Метод сжатия : С потерями
Размер потока : 39,1 Мбайт (9%)
Выравнивание : Разделение по промежуткам
Продолжительность промежутка : 40 мс. (1,00 видеокадр)
Время предзагрузки промежутка : 500 мс.
Библиотека кодирования : LAME3.98r
Настройки программы : -m s -V 4 -q 2 -lowpass 17 -b 128
Скриншоты:
pic pic pic pic
Для увеличения картинки щелкните мышкой по превью

Этот торрент недоступен для скачивания без регистрации, однако доступен по публичной magnet-ссылке (источники с публичных трекеров). Перед использованием ссылки прочтите, пожалуйста Пользовательское соглашение, а также как можно дольше оставайтесь на раздаче! Для того, чтобы скачать сам торрент-файл (который видит больше источников), а также для того, чтобы поблагодарить релизера, вам необходимо зарегистрироваться. Если регистрироваться лень - вы можете также попробовать скачать релиз по нашим партнерским ссылкам ниже. Кроме того, зарегистрированным пользователям не показывается всплывающая реклама при скачивании.

[underverse.su].t37971.torrent
Трекер: Зарегистрирован   [ 05.04.2014 08:42 ]  
Статус: проверено (by Jimmy at 05.04.2014 08:42)
Поблагодарили: 1 человек
Тип торрента: публичный - доступные источники с открытых трекеров: 
Размер: 415 MB (занимает 0.09 DVDR, для записи нужно 1 болванка DVDR/RW)
 
 

Яндекс.Метрика powered by Sphinx


В Н И М А Н И Е
Сайт не распространяет и не хранит электронные версии произведений, а лишь бесплатно и без коммерческой выгоды (не требуя взамен платы,
SMS и т.д.) предоставляет доступ к создаваемому пользователями каталогу ссылок на торрент-файлы, которые содержат только списки хеш-сумм.
Убедительная просьба с жалобами обращаться напрямую к пользователю, разместившему торрент файл.

Вверх