Loading...
Error

Within Temptation: Let Us Burn - Elements & Hydra Live In Concert [2014 г., Концерт, Symphonic Metal , BDRip 1080p] Original

Статистика раздачи
Размер:  10.93 GB   |    Зарегистрирован:  7 лет 10 месяцев   |    Скачан:  3 раза

Полного источника не было: 6 месяцев

Сидов:  0  |  0 KB/s  ]   Личеров:  0  |  0 KB/s  ]

* - сиды/пиры с внешних источников

   
 
Автор Сообщение

Ведьмочка Пол:Жен

20-Ноя-2014 18:20








Страна: Нидерланды
Год выпуска: 2014
Жанр: Symphonic Metal, Концерт
Продолжительность: 01:30:11 / 01:21:22

Два феерических выступления группы: юбилейное шоу "Elements",
состоявшееся в Антверпене в ноябре 2012-го в честь 15-летия группы
и финальный концерт тура "Hydra".




01. Intro
02. Iron
03. In The Middle Of The Night
04. Faster
05. Fire and Ice
06. Our Solemn Hour
07. Stand My Ground
08. Angels
09. Sanctuary Intro
10. The Last Dance
11. Say My Name
12. Candles
13. Sinead
14. The Promise
15. Mother Earth
16. Ice Queen
17. Stairway To The Skies






01. Intro
02. Let Us Burn
03. Paradise (What About Us?)
04. Faster
05. Iron
06. Edge Of The World
07. In The Middle Of The Night
08. Dangerous
09. And We Run
10. Stand My Ground
11. Covered By Roses
12. Mother Earth
13. What Have You Done
14. Silver Moonlight
15. Whole World Is Watching
16. Sinead
17. Ice Queen


Качество видео: BDRip 1080p
Формат: MKV

Tour Elements
Продолжительность: 01:30:11
Видео: AVC, 1920x1080 (16:9), 25.000 fps, ~8225 Кбит/сек
Аудио: AC-3, 448 Кбит/сек, 6 Каналов, 48.0 КГц

Tour Hydra
Продолжительность: 01:21:22
Видео: AVC, 1920x1080 (16:9), 25.000 fps, ~9165 Кбит/сек
Аудио: AC-3, 448 Кбит/сек, 6 Каналов, 48.0 КГц



Общее
Уникальный идентификатор : 211575404907830827370677220411196783215 (0x9F2BF0D7026E5C92AD0C33CB4F6F3A6F)
Полное имя : \Within.Temptation.Let.Us.Burn..2014.1080p\Within.Temptation.Let.Us.Burn.Elements.Antwerp.Live.In.Concert.1080p.mkv
Формат : Matroska
Версия формата : Version 4 / Version 2
Размер файла : 5,46 Гбайт
Продолжительность : 1 ч. 30 м.
Общий поток : 8673 Кбит/сек
Дата кодирования : UTC 2014-11-17 15:54:39
Программа кодирования : mkvmerge v7.1.0 ('Good Love') 32bit built on Jul 27 2014 12:59:18
Библиотека кодирования : libebml v1.3.0 + libmatroska v1.4.1
DURATION : 01:30:11.136000000
NUMBER_OF_FRAMES : 169098
NUMBER_OF_BYTES : 303023616
_STATISTICS_WRITING_APP : mkvmerge v7.1.0 ('Good Love') 32bit built on Jul 27 2014 12:59:18
_STATISTICS_WRITING_DATE_UTC : 2014-11-17 15:54:39
_STATISTICS_TAGS : BPS DURATION NUMBER_OF_FRAMES NUMBER_OF_BYTES

Видео
Идентификатор : 1
Формат : AVC
Формат/Информация : Advanced Video Codec
Профиль формата : [email protected]
Параметр CABAC формата : Да
Параметр ReFrames формата : 4 кадра
Идентификатор кодека : V_MPEG4/ISO/AVC
Продолжительность : 1 ч. 30 м.
Битрейт : 8225 Кбит/сек
Ширина : 1920 пикселей
Высота : 1080 пикселей
Соотношение сторон : 16:9
Режим частоты кадров : Постоянный
Частота кадров : 25,000 кадров/сек
Цветовое пространство : YUV
Субдискретизация насыщенности : 4:2:0
Битовая глубина : 8 бит
Тип развёртки : Прогрессивная
Бит/(Пиксели*Кадры) : 0.159
Размер потока : 5,07 Гбайт (93%)
Заголовок : English
Библиотека кодирования : x264 core 142 r2491 24e4fed
Настройки программы : cabac=1 / ref=4 / deblock=1:0:0 / analyse=0x3:0x113 / me=umh / subme=8 / psy=1 / psy_rd=1.00:0.00 / mixed_ref=1 / me_range=16 / chroma_me=1 / trellis=1 / 8x8dct=1 / cqm=0 / deadzone=21,11 / fast_pskip=1 / chroma_qp_offset=-2 / threads=6 / lookahead_threads=1 / sliced_threads=0 / nr=0 / decimate=1 / interlaced=0 / bluray_compat=0 / constrained_intra=0 / bframes=3 / b_pyramid=2 / b_adapt=2 / b_bias=0 / direct=3 / weightb=1 / open_gop=0 / weightp=2 / keyint=240 / keyint_min=24 / scenecut=40 / intra_refresh=0 / rc_lookahead=50 / rc=2pass / mbtree=1 / bitrate=8225 / ratetol=1.0 / qcomp=0.60 / qpmin=0 / qpmax=69 / qpstep=4 / cplxblur=20.0 / qblur=0.5 / ip_ratio=1.40 / aq=1:1.00
Язык : English
Default : Да
Forced : Нет
DURATION : 01:30:11.120000000
NUMBER_OF_FRAMES : 135278
NUMBER_OF_BYTES : 5562079118
_STATISTICS_WRITING_APP : mkvmerge v7.1.0 ('Good Love') 32bit built on Jul 27 2014 12:59:18
_STATISTICS_WRITING_DATE_UTC : 2014-11-17 15:54:39
_STATISTICS_TAGS : BPS DURATION NUMBER_OF_FRAMES NUMBER_OF_BYTES

Аудио
Идентификатор : 2
Формат : AC-3
Формат/Информация : Audio Coding 3
Расширение режима : CM (complete main)
Параметр Endianness формата : Big
Идентификатор кодека : A_AC3
Продолжительность : 1 ч. 30 м.
Вид битрейта : Постоянный
Битрейт : 448 Кбит/сек
Каналы : 6 каналов
Расположение каналов : Front: L C R, Side: L R, LFE
Частота : 48,0 КГц
Битовая глубина : 16 бит
Метод сжатия : С потерями
Размер потока : 289 Мбайт (5%)
Заголовок : English
Язык : English
Default : Да
Forced : Нет

Меню
00:00:00.000 : en:00:00:00.000
00:05:44.320 : en:00:05:44.320
00:11:23.240 : en:00:11:23.240
00:16:34.720 : en:00:16:34.720
00:21:06.680 : en:00:21:06.680
00:25:02.840 : en:00:25:02.840
00:30:13.920 : en:00:30:13.920
00:34:44.720 : en:00:34:44.720
00:38:58.880 : en:00:38:58.880
00:41:00.480 : en:00:41:00.480
00:45:27.360 : en:00:45:27.360
00:49:35.600 : en:00:49:35.600
00:56:42.320 : en:00:56:42.320
01:01:01.640 : en:01:01:01.640
01:09:03.400 : en:01:09:03.400
01:14:47.680 : en:01:14:47.680
01:19:40.920 : en:01:19:40.920



Общее
Уникальный идентификатор : 250687675974972438124744710490801884921 (0xBC98B0AFF5389EE097C381E59EF0CEF9)
Полное имя : \Within.Temptation.Let.Us.Burn..2014.1080p\Within.Temptation.Let.Us.Burn.Hydra.Amsterdam.Live.In.Concert.2014.1080p.mkv
Формат : Matroska
Версия формата : Version 4 / Version 2
Размер файла : 5,46 Гбайт
Продолжительность : 1 ч. 21 м.
Общий поток : 9613 Кбит/сек
Дата кодирования : UTC 2014-11-16 10:14:03
Программа кодирования : mkvmerge v7.1.0 ('Good Love') 32bit built on Jul 27 2014 12:59:18
Библиотека кодирования : libebml v1.3.0 + libmatroska v1.4.1
DURATION : 01:21:22.016000000
NUMBER_OF_FRAMES : 152563
NUMBER_OF_BYTES : 273392896
_STATISTICS_WRITING_APP : mkvmerge v7.1.0 ('Good Love') 32bit built on Jul 27 2014 12:59:18
_STATISTICS_WRITING_DATE_UTC : 2014-11-16 10:14:03
_STATISTICS_TAGS : BPS DURATION NUMBER_OF_FRAMES NUMBER_OF_BYTES

Видео
Идентификатор : 1
Формат : AVC
Формат/Информация : Advanced Video Codec
Профиль формата : [email protected]
Параметр CABAC формата : Да
Параметр ReFrames формата : 4 кадра
Идентификатор кодека : V_MPEG4/ISO/AVC
Продолжительность : 1 ч. 21 м.
Битрейт : 9165 Кбит/сек
Ширина : 1920 пикселей
Высота : 1080 пикселей
Соотношение сторон : 16:9
Режим частоты кадров : Постоянный
Частота кадров : 25,000 кадров/сек
Цветовое пространство : YUV
Субдискретизация насыщенности : 4:2:0
Битовая глубина : 8 бит
Тип развёртки : Прогрессивная
Бит/(Пиксели*Кадры) : 0.177
Размер потока : 5,10 Гбайт (93%)
Заголовок : English
Библиотека кодирования : x264 core 142 r2491 24e4fed
Настройки программы : cabac=1 / ref=4 / deblock=1:0:0 / analyse=0x3:0x113 / me=umh / subme=8 / psy=1 / psy_rd=1.00:0.00 / mixed_ref=1 / me_range=16 / chroma_me=1 / trellis=1 / 8x8dct=1 / cqm=0 / deadzone=21,11 / fast_pskip=1 / chroma_qp_offset=-2 / threads=6 / lookahead_threads=1 / sliced_threads=0 / nr=0 / decimate=1 / interlaced=0 / bluray_compat=0 / constrained_intra=0 / bframes=3 / b_pyramid=2 / b_adapt=2 / b_bias=0 / direct=3 / weightb=1 / open_gop=0 / weightp=2 / keyint=240 / keyint_min=24 / scenecut=40 / intra_refresh=0 / rc_lookahead=50 / rc=2pass / mbtree=1 / bitrate=9165 / ratetol=1.0 / qcomp=0.60 / qpmin=0 / qpmax=69 / qpstep=4 / cplxblur=20.0 / qblur=0.5 / ip_ratio=1.40 / aq=1:1.00
Язык : English
Default : Да
Forced : Нет
DURATION : 01:21:22.000000000
NUMBER_OF_FRAMES : 122050
NUMBER_OF_BYTES : 5591682629
_STATISTICS_WRITING_APP : mkvmerge v7.1.0 ('Good Love') 32bit built on Jul 27 2014 12:59:18
_STATISTICS_WRITING_DATE_UTC : 2014-11-16 10:14:03
_STATISTICS_TAGS : BPS DURATION NUMBER_OF_FRAMES NUMBER_OF_BYTES

Аудио
Идентификатор : 2
Формат : AC-3
Формат/Информация : Audio Coding 3
Расширение режима : CM (complete main)
Параметр Endianness формата : Big
Идентификатор кодека : A_AC3
Продолжительность : 1 ч. 21 м.
Вид битрейта : Постоянный
Битрейт : 448 Кбит/сек
Каналы : 6 каналов
Расположение каналов : Front: L C R, Side: L R, LFE
Частота : 48,0 КГц
Битовая глубина : 16 бит
Метод сжатия : С потерями
Размер потока : 261 Мбайт (5%)
Заголовок : English
Язык : English
Default : Да
Forced : Нет

Меню
00:00:00.000 : en:00:00:00.000
00:01:05.280 : en:00:01:05.280
00:06:20.760 : en:00:06:20.760
00:11:44.840 : en:00:11:44.840
00:16:05.000 : en:00:16:05.000
00:21:44.720 : en:00:21:44.720
00:26:43.000 : en:00:26:43.000
00:31:58.000 : en:00:31:58.000
00:36:50.440 : en:00:36:50.440
00:40:48.040 : en:00:40:48.040
00:45:13.360 : en:00:45:13.360
00:50:59.160 : en:00:50:59.160
00:57:07.040 : en:00:57:07.040
01:02:11.360 : en:01:02:11.360
01:07:29.720 : en:01:07:29.720
01:10:33.320 : en:01:10:33.320
01:14:05.480 : en:01:14:05.480


picpicpicpic
picpicpicpic

Этот торрент недоступен для скачивания без регистрации, однако доступен по публичной magnet-ссылке (источники с публичных трекеров). Перед использованием ссылки прочтите, пожалуйста Пользовательское соглашение, а также как можно дольше оставайтесь на раздаче! Для того, чтобы скачать сам торрент-файл (который видит больше источников), а также для того, чтобы поблагодарить релизера, вам необходимо зарегистрироваться. Если регистрироваться лень - вы можете также попробовать скачать релиз по нашим партнерским ссылкам ниже. Кроме того, зарегистрированным пользователям не показывается всплывающая реклама при скачивании.

[underverse.su].t46424.torrent
Трекер: Зарегистрирован   [ 20.11.2014 18:21 ]  
Статус: проверено (by Ведьмочка at 20.11.2014 19:25)
Поблагодарили: 3 человека
Тип торрента: публичный - доступные источники с открытых трекеров: 
Размер: 10.93 GB (занимает 2.5 DVDR, для записи нужно 3 болванки DVDR/RW)
 
 


Последний раз редактировалось: Ведьмочка (01.01.2015 12:03), всего редактировалось 2 раз(а)

nemos Пол:Муж

20-Ноя-2014 18:57

:super:

Яндекс.Метрика powered by Sphinx


В Н И М А Н И Е
Сайт не распространяет и не хранит электронные версии произведений, а лишь бесплатно и без коммерческой выгоды (не требуя взамен платы,
SMS и т.д.) предоставляет доступ к создаваемому пользователями каталогу ссылок на торрент-файлы, которые содержат только списки хеш-сумм.
Убедительная просьба с жалобами обращаться напрямую к пользователю, разместившему торрент файл.

Вверх