Loading...
Error

Защитники океана / Ocean Warriors (1-6 серий из 6) [2016 г., документальный, экология, наука, HDTVRip 720p] VO

Статистика раздачи
Размер:  7.72 GB   |    Зарегистрирован:  5 лет 2 месяца   |    Скачан:  3 раза

Полного источника не было: 3 года 9 месяцев

Сидов:  0  |  0 KB/s  ]   Личеров:  0  |  0 KB/s  ]

* - сиды/пиры с внешних источников

   
 
Автор Сообщение

ARI71 Пол:Муж

06-Июл-2017 20:21

Защитники океана / Ocean Warriors (1-6 серий из 6)


Год выпуска: 2016
Жанр: документальный, экология, наука
Страна: США Discovery Channel
Сюжет фильма:
Ежегодно сотни тысяч морских черепах, птиц и мальков напрасно гибнут на крючках и в сетях. Но этим преступления на море не ограничиваются – трюмы браконьерских судов полны нелегально добытого тунца и акульих плавников. В новой программе «Защитники океана» международная команда активистов, журналистов и ученых выходит в воды Антарктики, чтобы с риском для жизни бороться с незаконной ловлей рыбы. Летом 2015 года судно Rainbow Warrior III отчалило от берегов Новой Зеландии, чтобы за 60 дней совершить путешествие по Тихому океану и пролить свет на незаконную деятельность в международных водах. Браконьерство – только одна сторона этой проблемы. Вы собственными глазами увидите, в каких условиях принуждают трудиться рыбаков, и какой ценой добывается тунец, который затем отправляется на прилавки магазинов.


Качество видео: HDTVRip 720p

Продолжительность: 6 х ~00:44:00
Формат: MKV
Видео: MPEG-4 AVC, 1280x720, ~4000 kbps
Аудио: русский, одноголосый [профессиональный], MP2 2.0, 192 kbps

Релиз-группа:

Код:

Общее
Уникальный идентификатор : 85797466603499269410760582773863789470 (0x408BFDB2BA6475E1E8832C2799B6B39E)
Полное имя : D:\Защитники океана 720p GeneralFilm\01 Защитники океана.mkv
Формат : Matroska
Версия формата : Version 2
Размер файла : 1,29 Гбайт
Продолжительность : 43 м.
Режим общего битрейта : Постоянный
Общий поток : 4199 Кбит/сек
Программа кодирования : Lavf54.63.104
Библиотека кодирования : Lavf54.63.104 / Lavf54.63.104

Видео
Идентификатор : 1
Формат : AVC
Формат/Информация : Advanced Video Codec
Профиль формата : [email protected]
Параметр CABAC формата : Да
Параметр ReFrames формата : 3 кадра
Идентификатор кодека : V_MPEG4/ISO/AVC
Продолжительность : 43 м.
Вид битрейта : Постоянный
Битрейт : 4000 Кбит/сек
Ширина : 1280 пикселей
Высота : 720 пикселей
Соотношение сторон : 16:9
Режим частоты кадров : Постоянный
Частота кадров : 50,000 кадров/сек
Стандарт вещания : PAL
Цветовое пространство : YUV
Субдискретизация насыщенности : 4:2:0
Битовая глубина : 8 бит
Тип развёртки : Прогрессивная
Бит/(Пиксели*Кадры) : 0.087
Размер потока : 1,20 Гбайт (93%)
Default : Нет
Forced : Нет
Цветовой диапазон : Limited
Основные цвета : BT.709
Характеристики трансфера : BT.709
Коэффициенты матрицы : BT.709

Аудио
Идентификатор : 2
Формат : MPEG Audio
Версия формата : Version 1
Профиль формата : Layer 2
Идентификатор кодека : A_MPEG/L2
Идентификатор кодека/Подсказка : MP2
Продолжительность : 43 м.
Вид битрейта : Постоянный
Битрейт : 192 Кбит/сек
Каналы : 2 канала
Частота : 48,0 КГц
Метод сжатия : С потерями
Задержка видео : 24 мс.
Размер потока : 60,3 Мбайт (5%)
Язык : English
Default : Да
Forced : Нет
picpicpicpicpic
Для увеличения картинки щелкните мышкой по превью

Этот торрент недоступен для скачивания без регистрации, однако доступен по публичной magnet-ссылке (источники с публичных трекеров). Перед использованием ссылки прочтите, пожалуйста Пользовательское соглашение, а также как можно дольше оставайтесь на раздаче! Для того, чтобы скачать сам торрент-файл (который видит больше источников), а также для того, чтобы поблагодарить релизера, вам необходимо зарегистрироваться. Если регистрироваться лень - вы можете также попробовать скачать релиз по нашим партнерским ссылкам ниже. Кроме того, зарегистрированным пользователям не показывается всплывающая реклама при скачивании.

[underverse.me].t85742.torrent
Трекер: Зарегистрирован   [ 06.07.2017 20:21 ]  
Статус: проверено (by ARI71 at 06.07.2017 20:22)
Поблагодарили: пока никто не поблагодарил...
Тип торрента: публичный - доступные источники с открытых трекеров: 
Размер: 7.72 GB (занимает 1.76 DVDR, для записи нужно 2 болванки DVDR/RW)
 
 

ARI71 Пол:Муж

06-Июл-2017 20:25

Приятного всем просмотра!

Голосуй за трекер!!




Яндекс.Метрика powered by Sphinx


В Н И М А Н И Е
Сайт не распространяет и не хранит электронные версии произведений, а лишь бесплатно и без коммерческой выгоды (не требуя взамен платы,
SMS и т.д.) предоставляет доступ к создаваемому пользователями каталогу ссылок на торрент-файлы, которые содержат только списки хеш-сумм.
Убедительная просьба с жалобами обращаться напрямую к пользователю, разместившему торрент файл.

Вверх