Loading...
Error

Москиты / Mosquito (Сью Рэйнольд) [2016 г., документальный, наука, исследование, HDTVRip] DVO

Статистика раздачи
Размер:  816 MB   |    Зарегистрирован:  5 лет 2 месяца   |    Скачан:  7 раз
Сидов:  1  |  0 KB/s  ]   Личеров:  0  |  0 KB/s  ]

* - сиды/пиры с внешних источников

   
 
Автор Сообщение

ARI71 Пол:Муж

07-Июл-2017 07:11

Москиты / Mosquito


Год выпуска: 2016
Жанр: документальный, наука, исследование
Страна: США Discovery Communications, LLC.
Режиссер: Сью Рэйнольд
Сюжет фильма:
Ежегодно москиты убивают больше людей, чем все другие живые существа вместе взятые. И человек решил объявить войну этим насекомым. Ученые разрабатывают новые методы борьбы, которые позволяют уничтожать москитов целыми популяциями. Однако в случае успеха это приведёт к крупнейшему в истории вымиранию вида. Кто может предсказать, что произойдёт, если человек возьмет на себя роль бога? Съёмки фильма проходили на четырёх континентах. В них приняли участие ведущие специалисты из разных стран, которые призывают мировое сообщество объединить усилия для решения этой глобальной проблемы. Вас ждут увлекательные факты об уникальной биологии москитов, их поразительной способности приспосабливаться к различным средствам противомоскитной защиты, а также о новых, зачастую неоднозначных способах устранения угрозы, которую они несут.


Качество видео: HDTVRip

Продолжительность: 01:05:30
Формат: AVI
Видео: XviD, 720x400, 1542 kbps
Аудио: русский, двухголосый закадровый [профессиональный], AC3 2.0, 192 kbps

Код:

Общее
Полное имя : D:\Mosquito HitWay.avi
Формат : AVI
Формат/Информация : Audio Video Interleave
Размер файла : 816 Мбайт
Продолжительность : 1 ч. 5 м.
Общий поток : 1744 Кбит/сек
Программа кодирования : VirtualDubMod 1.5.10.3 | www.virtualdub-fr.org || (build 2550/release)
Библиотека кодирования : VirtualDubMod build 2550/release

Видео
Идентификатор : 0
Формат : MPEG-4 Visual
Профиль формата : Advanced [email protected]
Параметр BVOP формата : 1
Параметр QPel формата : Нет
Параметр GMC формата : Без точки перехода
Параметр матрицы формата : Выборочная
Идентификатор кодека : XVID
Идентификатор кодека/Подсказка : XviD
Продолжительность : 1 ч. 5 м.
Битрейт : 1542 Кбит/сек
Ширина : 720 пикселей
Высота : 400 пикселей
Соотношение сторон : 16:9
Частота кадров : 25,000 кадров/сек
Цветовое пространство : YUV
Субдискретизация насыщенности : 4:2:0
Битовая глубина : 8 бит
Тип развёртки : Прогрессивная
Метод сжатия : С потерями
Бит/(Пиксели*Кадры) : 0.214
Размер потока : 722 Мбайт (88%)
Библиотека кодирования : XviD 73

Аудио
Идентификатор : 1
Формат : AC-3
Формат/Информация : Audio Coding 3
Расширение режима : CM (complete main)
Параметр Endianness формата : Big
Идентификатор кодека : 2000
Продолжительность : 1 ч. 5 м.
Вид битрейта : Постоянный
Битрейт : 192 Кбит/сек
Каналы : 2 канала
Расположение каналов : Front: L R
Частота : 48,0 КГц
Частота кадров : 31,250 кадров/сек (1536 spf)
Метод сжатия : С потерями
Размер потока : 89,9 Мбайт (11%)
Выравнивание : Разделение по промежуткам
Продолжительность промежутка : 40 мс. (1,00 видеокадр)
Время предзагрузки промежутка : 500 мс.
picpicpicpicpic
Для увеличения картинки щелкните мышкой по превью

Этот торрент недоступен для скачивания без регистрации, однако доступен по публичной magnet-ссылке (источники с публичных трекеров). Перед использованием ссылки прочтите, пожалуйста Пользовательское соглашение, а также как можно дольше оставайтесь на раздаче! Для того, чтобы скачать сам торрент-файл (который видит больше источников), а также для того, чтобы поблагодарить релизера, вам необходимо зарегистрироваться. Если регистрироваться лень - вы можете также попробовать скачать релиз по нашим партнерским ссылкам ниже. Кроме того, зарегистрированным пользователям не показывается всплывающая реклама при скачивании.

[underverse.me].t85761.torrent
Трекер: Зарегистрирован   [ 07.07.2017 07:11 ]  
Статус: проверено (by ARI71 at 07.07.2017 07:12)
Поблагодарили: пока никто не поблагодарил...
Тип торрента: публичный - доступные источники с открытых трекеров: 
Размер: 816 MB (занимает 0.18 DVDR, для записи нужно 1 болванка DVDR/RW)
 
 

Яндекс.Метрика powered by Sphinx


В Н И М А Н И Е
Сайт не распространяет и не хранит электронные версии произведений, а лишь бесплатно и без коммерческой выгоды (не требуя взамен платы,
SMS и т.д.) предоставляет доступ к создаваемому пользователями каталогу ссылок на торрент-файлы, которые содержат только списки хеш-сумм.
Убедительная просьба с жалобами обращаться напрямую к пользователю, разместившему торрент файл.

Вверх