Loading...
Error

Дьявольский каньон / Devil's Canyon (6 серий) [2017 г., документальный, приключения, экстрим, HDTVRip] VO

Статистика раздачи
Размер:  3.18 GB   |    Зарегистрирован:  5 лет 1 месяц   |    Скачан:  4 раза

Полного источника не было: 3 месяца 24 дня

Сидов:  0  |  0 KB/s  ]   Личеров:  0  |  0 KB/s  ]

* - сиды/пиры с внешних источников

   
 
Автор Сообщение

ARI71 Пол:Муж

17-Июл-2017 07:29

Дьявольский каньон / Devil's Canyon (6 серий)


Год выпуска: 2017
Жанр: документальный, приключения, экстрим
Страна: США Discovery Channel
В ролях: Бойс Гофф, Бен ван дер Волк, Джон Белкик
Сюжет фильма:
Дьявольский каньон – район в Британской Колумбии, известный самыми богатыми месторождениями россыпного золота в мире. При этом он признан одним из наиболее трудных для жизни мест на планете. И всё же находятся смельчаки, готовые отправиться на край света с рюкзаком за спиной, как это делали первопроходцы времен золотой лихорадки. В новой программе трое старателей-экстремалов решаются на самое рискованное предприятие в их жизни: попытать счастья в труднодоступных уголках Дьявольского каньона. Их задача – успеть добыть как можно больше золота за период короткого северного лета. Героям предстоит выдержать ураганный ветер, пронизывающий до костей дождь и снег, гипотермию и справиться с угрозой нападения медведей.

Качество видео: HDTVRip

Продолжительность: 6 x ~00:44:00
Формат: AVI
Видео: XviD, 720x400, 1542 kbps
Аудио: русский, одноголосый [профессиональный], AC3 2.0, 192 kbps

Код:

Общее
Полное имя : D:\Дьявольский каньон GeneralFilm\01 Дьявольский каньон.avi
Формат : AVI
Формат/Информация : Audio Video Interleave
Размер файла : 545 Мбайт
Продолжительность : 43 м.
Общий поток : 1744 Кбит/сек
Программа кодирования : VirtualDubMod 1.5.10.3 | www.virtualdub-fr.org || (build 2550/release)
Библиотека кодирования : VirtualDubMod build 2550/release

Видео
Идентификатор : 0
Формат : MPEG-4 Visual
Профиль формата : Advanced [email protected]
Параметр BVOP формата : 1
Параметр QPel формата : Нет
Параметр GMC формата : Без точки перехода
Параметр матрицы формата : Выборочная
Идентификатор кодека : XVID
Идентификатор кодека/Подсказка : XviD
Продолжительность : 43 м.
Битрейт : 1542 Кбит/сек
Ширина : 720 пикселей
Высота : 400 пикселей
Соотношение сторон : 16:9
Частота кадров : 25,000 кадров/сек
Цветовое пространство : YUV
Субдискретизация насыщенности : 4:2:0
Битовая глубина : 8 бит
Тип развёртки : Прогрессивная
Метод сжатия : С потерями
Бит/(Пиксели*Кадры) : 0.214
Размер потока : 482 Мбайт (88%)
Библиотека кодирования : XviD 73

Аудио
Идентификатор : 1
Формат : AC-3
Формат/Информация : Audio Coding 3
Расширение режима : CM (complete main)
Параметр Endianness формата : Big
Идентификатор кодека : 2000
Продолжительность : 43 м.
Вид битрейта : Постоянный
Битрейт : 192 Кбит/сек
Каналы : 2 канала
Расположение каналов : Front: L R
Частота : 48,0 КГц
Частота кадров : 31,250 кадров/сек (1536 spf)
Метод сжатия : С потерями
Размер потока : 60,1 Мбайт (11%)
Выравнивание : Разделение по промежуткам
Продолжительность промежутка : 40 мс. (1,00 видеокадр)
Время предзагрузки промежутка : 500 мс.
picpicpicpicpic
Для увеличения картинки щелкните мышкой по превью

Этот торрент недоступен для скачивания без регистрации, однако доступен по публичной magnet-ссылке (источники с публичных трекеров). Перед использованием ссылки прочтите, пожалуйста Пользовательское соглашение, а также как можно дольше оставайтесь на раздаче! Для того, чтобы скачать сам торрент-файл (который видит больше источников), а также для того, чтобы поблагодарить релизера, вам необходимо зарегистрироваться. Если регистрироваться лень - вы можете также попробовать скачать релиз по нашим партнерским ссылкам ниже. Кроме того, зарегистрированным пользователям не показывается всплывающая реклама при скачивании.

[underverse.me].t87327.torrent
Трекер: Зарегистрирован   [ 14.08.2017 19:48 ]  
Статус: проверено (by ARI71 at 14.08.2017 19:49)
Поблагодарили: пока никто не поблагодарил...
Тип торрента: публичный - доступные источники с открытых трекеров: 
Размер: 3.18 GB (занимает 0.73 DVDR, для записи нужно 1 болванка DVDR/RW)
 
 


Последний раз редактировалось: ARI71 (14.08.2017 19:48), всего редактировалось 5 раз(а)

ARI71 Пол:Муж

23-Июл-2017 16:30

Добавлена заключительная: 6-я серия!
    Сериал завершён!

Яндекс.Метрика powered by Sphinx


В Н И М А Н И Е
Сайт не распространяет и не хранит электронные версии произведений, а лишь бесплатно и без коммерческой выгоды (не требуя взамен платы,
SMS и т.д.) предоставляет доступ к создаваемому пользователями каталогу ссылок на торрент-файлы, которые содержат только списки хеш-сумм.
Убедительная просьба с жалобами обращаться напрямую к пользователю, разместившему торрент файл.

Вверх