Loading...
Error

Сокровище Купера / Cooper's Treasure (8 серий из 8 ) [2017 г., документальный, приключения, история, HDTVRip] DVO

Статистика раздачи
Размер:  4.27 GB   |    Зарегистрирован:  5 лет 1 месяц   |    Скачан:  4 раза

Полного источника не было: 2 года 4 месяца

Сидов:  0  |  0 KB/s  ]   Личеров:  0  |  0 KB/s  ]

* - сиды/пиры с внешних источников

   
 
Автор Сообщение

ARI71 Пол:Муж

17-Июл-2017 08:08

Сокровище Купера / Cooper's Treasure (8 серий из 8 )


Год выпуска: 2017
Жанр: документальный, приключения, история
Страна: США Discovery Communications, LLC.
Сюжет фильма:
В 1960-х годах американские астронавты, входившие в легендарную «первую семерку», пользовались не меньшей популярностью, чем рок-звезды. Гордон Купер, настоящий красавец и страстный поклонник спортивных автомобилей, был самым молодым и знаменитым из них. Именно ему принадлежал рекорд самого длительного одиночного полёта в истории США. Но известен он не только этим. Во время одной из своих главных миссий – поиска ядерных объектов – астронавт нашел нечто загадочное: таинственные затонувшие корабли на дне Карибского моря. На протяжении нескольких десятилетий он втайне от всех собирал информацию и в итоге составил документ – карту сокровищ, которая, по его убеждению, приведет её обладателя к несметным богатствам. Незадолго до смерти астронавт передал карту своему другу Дарреллу Миклошу, который решил отправиться на их поиски.

Качество видео: HDTVRip

Продолжительность: 8 x ~00:44:00
Формат: AVI
Видео: XviD, 720x400, 1541 kbps
Аудио: русский, двухголосый [профессиональный], AC3 2.0, 192 kbps

Код:

Общее
Полное имя : D:\Сокровище Купера HitWay\01 Сокровище Купера HitWay.avi
Формат : AVI
Формат/Информация : Audio Video Interleave
Размер файла : 550 Мбайт
Продолжительность : 44 м.
Общий поток : 1743 Кбит/сек
Программа кодирования : VirtualDubMod 1.5.10.3 | www.virtualdub-fr.org || (build 2550/release)
Библиотека кодирования : VirtualDubMod build 2550/release

Видео
Идентификатор : 0
Формат : MPEG-4 Visual
Профиль формата : Advanced [email protected]
Параметр BVOP формата : 1
Параметр QPel формата : Нет
Параметр GMC формата : Без точки перехода
Параметр матрицы формата : Выборочная
Идентификатор кодека : XVID
Идентификатор кодека/Подсказка : XviD
Продолжительность : 44 м.
Битрейт : 1541 Кбит/сек
Ширина : 720 пикселей
Высота : 400 пикселей
Соотношение сторон : 16:9
Частота кадров : 25,000 кадров/сек
Цветовое пространство : YUV
Субдискретизация насыщенности : 4:2:0
Битовая глубина : 8 бит
Тип развёртки : Прогрессивная
Метод сжатия : С потерями
Бит/(Пиксели*Кадры) : 0.214
Размер потока : 486 Мбайт (88%)
Библиотека кодирования : XviD 73

Аудио
Идентификатор : 1
Формат : AC-3
Формат/Информация : Audio Coding 3
Расширение режима : CM (complete main)
Параметр Endianness формата : Big
Идентификатор кодека : 2000
Продолжительность : 44 м.
Вид битрейта : Постоянный
Битрейт : 192 Кбит/сек
Каналы : 2 канала
Расположение каналов : Front: L R
Частота : 48,0 КГц
Частота кадров : 31,250 кадров/сек (1536 spf)
Метод сжатия : С потерями
Размер потока : 60,6 Мбайт (11%)
Выравнивание : Разделение по промежуткам
Продолжительность промежутка : 40 мс. (1,00 видеокадр)
Время предзагрузки промежутка : 500 мс.
01. Космическая карта сокровищ
02. Секрет Колумба
03. Связано с Колумбом
04. Опасные воды
05. Движущаяся мишень
06. Сокровища Колумба
07. Секреты поисков
08. Секреты астронавта
picpicpicpicpic
Для увеличения картинки щелкните мышкой по превью

Этот торрент недоступен для скачивания без регистрации, однако доступен по публичной magnet-ссылке (источники с публичных трекеров). Перед использованием ссылки прочтите, пожалуйста Пользовательское соглашение, а также как можно дольше оставайтесь на раздаче! Для того, чтобы скачать сам торрент-файл (который видит больше источников), а также для того, чтобы поблагодарить релизера, вам необходимо зарегистрироваться. Если регистрироваться лень - вы можете также попробовать скачать релиз по нашим партнерским ссылкам ниже. Кроме того, зарегистрированным пользователям не показывается всплывающая реклама при скачивании.

[underverse.me].t87234.torrent
Трекер: Зарегистрирован   [ 13.08.2017 10:29 ]  
Статус: проверено (by ARI71 at 13.08.2017 10:30)
Поблагодарили: пока никто не поблагодарил...
Тип торрента: публичный - доступные источники с открытых трекеров: 
Размер: 4.27 GB (занимает 0.98 DVDR, для записи нужно 1 болванка DVDR/RW)
 
 


Последний раз редактировалось: ARI71 (13.08.2017 10:29), всего редактировалось 5 раз(а)

ARI71 Пол:Муж

22-Июл-2017 20:53

Добавлена заключительная серия: 08. Секреты астронавта

    Сериал завершён!

Яндекс.Метрика powered by Sphinx


В Н И М А Н И Е
Сайт не распространяет и не хранит электронные версии произведений, а лишь бесплатно и без коммерческой выгоды (не требуя взамен платы,
SMS и т.д.) предоставляет доступ к создаваемому пользователями каталогу ссылок на торрент-файлы, которые содержат только списки хеш-сумм.
Убедительная просьба с жалобами обращаться напрямую к пользователю, разместившему торрент файл.

Вверх