Loading...
Error

(Trance, House) Paul Oakenfold - Generations: Three Decades of Dance (2017) [FLAC (Tracks+.CUE), lossless]

Статистика раздачи
Размер:  1.6 GB   |    Зарегистрирован:  5 лет   |    Скачан:  16 раз

Полного источника не было: 3 месяца 6 дней

Сидов:  0  |  0 KB/s  ]   Личеров:  0  |  0 KB/s  ]

* - сиды/пиры с внешних источников

   
 
Автор Сообщение

Darkferse Пол:Жен

18-Сен-2017 10:12

Paul Oakenfold - Generations: Three Decades of Dance

Жанр: Trance, House
Страна: UK
Год выпуска: 2017
Источник: CD
Производитель: New State Music - NEW9197CD
Аудиокодек: FLAC
Тип рипа: Tracks+.CUE
Битрейт: lossless
Продолжительность: 03:58:39

Треклист:
01. E2E4 - Sueno Latino (Paradise Version)
02. M/A/R/R/S - Pump Up the Volume
03. Steve "Silk" Hurley - Jack Your Body (Club Your Body)
04. Joe Smooth - Promised Land
05. CeCe Rogers - Someday (Club Mix)
06. Marshall Jefferson - Move Your Body (The House Music Anthem)
07. Adventures of Stevie V - Dirty Cash (Sold Out 7" Edit)
08. Inner City - Good Life (Magic Juan's Mix)
09. Black Box - Ride On Time
10. Everything But the Girl - Missing (Todd Terry Remix)
11. Dirty Vegas - Days Go by
12. Robin S - Show Me Love (Stonebridge Remix)
13. Eric Prydz - Pjanoo
14. Jaydee Plastic - Dreams
15. Storm Queen - Look Right Through (MK Dub III)
16. Deadmau5 - I Remember (with Kaskade)
17. U2 - Beautiful Day (The Perfecto Mix)
18. Mory Kanté - Yeke Yeke (Hardfloor Mix)
19. Underworld - Born Slippy Nuxx (Paul Oakenfold Remix)
20. Swedish House Mafia - Miami 2 Ibiza (feat. Tinie Tempah)
01. Salt Tank - Eugina (Reactivation Mix)
02. Lost It.com - Animal
03. Chicane - Offshore (Disco Citizens Remix)
04. Tilt - Children (Tilt's Courtyard Mix)
05. Tastexperience - Highlander
06. Paul Oakenfold - Southern Sun (Tiësto Mix)
07. Faithless - Salva Mea (Sister Bliss Remix)
08. Planet Perfecto Knights - Resurection (EC Twins & Remy le Duc Remix)
09. Timo Maas - Ubik (The Dance) (feat. Martin Bettinghaus)
10. Der Dritte Raum - Hale Bopp (Raumgleiter Version)
11. Paul Oakenfold - Barber's Adagio for Strings
12. Da Hool - Meet Her at the Loveparade (Nalin & Kane Remix)
13. Chakra - Home (Salt Tank Reconstruction)
14. Grace - Skin On Skin (Orange Mix)
15. Paul Oakenfold - Touch Me (Perfecto Club Mix) (feat. Cassandra Fox)
16. Jam & Spoon - Stella
17. Planet Perfecto - Bullet In the Gun (Saturday Mix)
18. Amoebaassassin - Pile Driver (Grayed Out Summer Mix)
19. Schiller - Das Glockenspiel (Humate Remix)
20. L.S.G. - Netherworld (Vinyl Cut)
21. Grace - Not Over Yet (Perfecto Mix)
01. Frankie Knuckles - Your Love (feat. Jamie Principle)
02. Electra - Jibaro
03. It's Immaterial - Driving Away from Home (Wicked Weather for Walking)
04. Simple Minds - Theme for Great Cities
05. The Beloved - The Sun Rising (Deeply Satisfying Mix)
06. Orbital - Belfast
07. Leftfield - Release the Pressure (The Desert Edit)
08. The Grid - Floatation
09. Saint Etienne - Only Love Can Break Your Heart (Andrew Weatherall Remix)
10. Carly Simon - Why
11. Happy Mondays - Hallelujah (Club Mix)
12. William Pitt - City Lights
13. Cyndi Lauper - What's Going On (Club Version)
14. Thrashing Doves - Jesus On the Payroll (Street Groove)
15. Izit - Stories (I've a Novella Mix)
16. The Cure - Lullaby
17. Red Box - Enjoy (Solid Gold Easy Amex)
18. The Stone Roses - Waterfall (12" Mix)
19. The Woodentops - Why Why Why

Код:

Exact Audio Copy V1.3 from 2. September 2016

EAC extraction logfile from 12. September 2017, 2:29

Paul Oakenfold / Generations - Three Decades Of Dance

Used drive  : ATAPI   iHAS122   E   Adapter: 1  ID: 0

Read mode               : Secure
Utilize accurate stream : Yes
Defeat audio cache      : Yes
Make use of C2 pointers : No

Read offset correction                      : 6
Overread into Lead-In and Lead-Out          : No
Fill up missing offset samples with silence : Yes
Delete leading and trailing silent blocks   : No
Null samples used in CRC calculations       : Yes
Used interface                              : Native Win32 interface for Win NT & 2000
Gap handling                                : Appended to previous track

Used output format              : User Defined Encoder
Selected bitrate                : 1024 kBit/s
Quality                         : High
Add ID3 tag                     : No
Command line compressor         : C:\Program Files (x86)\Exact Audio Copy\FLAC\FLAC.EXE
Additional command line options : -8 -e -p -V -T "ARTIST=%artist%" -T "TITLE=%title%" -T "ALBUM=%albumtitle%" -T "DATE=%year%" -T "TRACKNUMBER=%tracknr%" -T "GENRE=%genre%" -T "PERFORMER=%albuminterpret%" -T "COMPOSER=%composer%" %haslyrics%--tag-from-file=LYRICS="%lyricsfile%"%haslyrics% -T "ALBUMARTIST=%albumartist%" -T "DISCNUMBER=%cdnumber%" -T "TOTALDISCS=%totalcds%" -T "TOTALTRACKS=%numtracks%" -T "COMMENT=%comment%" %source% -o %dest%

TOC of the extracted CD

     Track |   Start  |  Length  | Start sector | End sector
    ---------------------------------------------------------
        1  |  0:00.00 |  5:00.31 |         0    |    22530
        2  |  5:00.31 |  2:03.19 |     22531    |    31774
        3  |  7:03.50 |  3:52.37 |     31775    |    49211
        4  | 10:56.12 |  2:18.44 |     49212    |    59605
        5  | 13:14.56 |  4:14.58 |     59606    |    78713
        6  | 17:29.39 |  4:53.59 |     78714    |   100747
        7  | 22:23.23 |  4:07.31 |    100748    |   119303
        8  | 26:30.54 |  4:28.45 |    119304    |   139448
        9  | 30:59.24 |  4:29.01 |    139449    |   159624
       10  | 35:28.25 |  4:16.37 |    159625    |   178861
       11  | 39:44.62 |  4:48.57 |    178862    |   200518
       12  | 44:33.44 |  4:36.26 |    200519    |   221244
       13  | 49:09.70 |  2:39.69 |    221245    |   233238
       14  | 51:49.64 |  3:30.53 |    233239    |   249041
       15  | 55:20.42 |  2:41.44 |    249042    |   261160
       16  | 58:02.11 |  4:29.25 |    261161    |   281360
       17  | 62:31.36 |  6:25.03 |    281361    |   310238
       18  | 68:56.39 |  3:44.45 |    310239    |   327083
       19  | 72:41.09 |  4:05.22 |    327084    |   345480
       20  | 76:46.31 |  2:54.61 |    345481    |   358591

Track  1

     Filename M:\EACRips\Paul Oakenfold - Generations - Three Decades of Dance {New State, NEW9197CD} (2017) [FLAC]\CD01 - House Mix\01 - Sueño Latino - Sueno Latino (With Manuel Goettsching) [Performing E2E4] [Paradise Version].wav

     Pre-gap length  0:00:02.00

     Peak level 98.9 %
     Extraction speed 5.1 X
     Track quality 99.9 %
     Test CRC 18082009
     Copy CRC 18082009
     Accurately ripped (confidence 1)  [8D286EF2]  (AR v2)
     Copy OK

Track  2

     Filename M:\EACRips\Paul Oakenfold - Generations - Three Decades of Dance {New State, NEW9197CD} (2017) [FLAC]\CD01 - House Mix\02 - M,A,R,R,S - Pump Up The Volume.wav

     Peak level 99.0 %
     Extraction speed 5.5 X
     Track quality 100.0 %
     Test CRC 4E51E2C0
     Copy CRC 4E51E2C0
     Accurately ripped (confidence 1)  [EC00EAB6]  (AR v2)
     Copy OK

Track  3

     Filename M:\EACRips\Paul Oakenfold - Generations - Three Decades of Dance {New State, NEW9197CD} (2017) [FLAC]\CD01 - House Mix\03 - Steve ''Silk'' Hurley - Jack Your Body (Club Your Body).wav

     Peak level 98.9 %
     Extraction speed 6.5 X
     Track quality 100.0 %
     Test CRC 7B873879
     Copy CRC 7B873879
     Accurately ripped (confidence 1)  [2005C909]  (AR v2)
     Copy OK

Track  4

     Filename M:\EACRips\Paul Oakenfold - Generations - Three Decades of Dance {New State, NEW9197CD} (2017) [FLAC]\CD01 - House Mix\04 - Joe Smooth - Promised Land.wav

     Peak level 98.9 %
     Extraction speed 6.3 X
     Track quality 100.0 %
     Test CRC 9BC79D16
     Copy CRC 9BC79D16
     Accurately ripped (confidence 1)  [4F6C8A48]  (AR v2)
     Copy OK

Track  5

     Filename M:\EACRips\Paul Oakenfold - Generations - Three Decades of Dance {New State, NEW9197CD} (2017) [FLAC]\CD01 - House Mix\05 - CeCe Rogers - Someday (Club Mix).wav

     Peak level 98.9 %
     Extraction speed 7.2 X
     Track quality 100.0 %
     Test CRC 11D12D20
     Copy CRC 11D12D20
     Accurately ripped (confidence 1)  [070A159D]  (AR v2)
     Copy OK

Track  6

     Filename M:\EACRips\Paul Oakenfold - Generations - Three Decades of Dance {New State, NEW9197CD} (2017) [FLAC]\CD01 - House Mix\06 - Marshall Jefferson - Move Your Body (The House Music Anthem) [Extended Mix].wav

     Peak level 98.9 %
     Extraction speed 6.7 X
     Track quality 99.9 %
     Test CRC 6BC18AC8
     Copy CRC 6BC18AC8
     Accurately ripped (confidence 1)  [113868C8]  (AR v2)
     Copy OK

Track  7

     Filename M:\EACRips\Paul Oakenfold - Generations - Three Decades of Dance {New State, NEW9197CD} (2017) [FLAC]\CD01 - House Mix\07 - The Adventures Of Stevie V - Dirty Cash (Sold Out 7'' Edit).wav

     Peak level 98.9 %
     Extraction speed 8.0 X
     Track quality 100.0 %
     Test CRC BFEBBA5F
     Copy CRC BFEBBA5F
     Accurately ripped (confidence 1)  [C53FD5C7]  (AR v2)
     Copy OK

Track  8

     Filename M:\EACRips\Paul Oakenfold - Generations - Three Decades of Dance {New State, NEW9197CD} (2017) [FLAC]\CD01 - House Mix\08 - Inner City - Good Life (Mayday Club Mix).wav

     Peak level 98.9 %
     Extraction speed 7.2 X
     Track quality 99.9 %
     Test CRC 27D90559
     Copy CRC 27D90559
     Accurately ripped (confidence 1)  [43E350C9]  (AR v2)
     Copy OK

Track  9

     Filename M:\EACRips\Paul Oakenfold - Generations - Three Decades of Dance {New State, NEW9197CD} (2017) [FLAC]\CD01 - House Mix\09 - Black Box - Ride On Time (Massive Mix).wav

     Peak level 98.9 %
     Extraction speed 8.7 X
     Track quality 100.0 %
     Test CRC 22002F25
     Copy CRC 22002F25
     Accurately ripped (confidence 1)  [7477C48C]  (AR v2)
     Copy OK

Track 10

     Filename M:\EACRips\Paul Oakenfold - Generations - Three Decades of Dance {New State, NEW9197CD} (2017) [FLAC]\CD01 - House Mix\10 - Everything But The Girl - Missing (Todd Terry Remix).wav

     Peak level 99.0 %
     Extraction speed 9.0 X
     Track quality 100.0 %
     Test CRC A48C7378
     Copy CRC A48C7378
     Accurately ripped (confidence 1)  [3CB31ECF]  (AR v2)
     Copy OK

Track 11

     Filename M:\EACRips\Paul Oakenfold - Generations - Three Decades of Dance {New State, NEW9197CD} (2017) [FLAC]\CD01 - House Mix\11 - Dirty Vegas - Days Go By.wav

     Peak level 99.1 %
     Extraction speed 9.5 X
     Track quality 100.0 %
     Test CRC 06EEEBFC
     Copy CRC 06EEEBFC
     Accurately ripped (confidence 1)  [BC473592]  (AR v2)
     Copy OK

Track 12

     Filename M:\EACRips\Paul Oakenfold - Generations - Three Decades of Dance {New State, NEW9197CD} (2017) [FLAC]\CD01 - House Mix\12 - Robin S. - Show Me Love (Stonebridge Club Mix).wav

     Peak level 99.1 %
     Extraction speed 9.7 X
     Track quality 100.0 %
     Test CRC 5BE613DD
     Copy CRC 5BE613DD
     Accurately ripped (confidence 1)  [7563F960]  (AR v2)
     Copy OK

Track 13

     Filename M:\EACRips\Paul Oakenfold - Generations - Three Decades of Dance {New State, NEW9197CD} (2017) [FLAC]\CD01 - House Mix\13 - Eric Prydz - Pjanoo.wav

     Peak level 96.1 %
     Extraction speed 9.2 X
     Track quality 100.0 %
     Test CRC 871B707D
     Copy CRC 871B707D
     Accurately ripped (confidence 1)  [A750A48F]  (AR v2)
     Copy OK

Track 14

     Filename M:\EACRips\Paul Oakenfold - Generations - Three Decades of Dance {New State, NEW9197CD} (2017) [FLAC]\CD01 - House Mix\14 - Jay Dee - Plastic Dreams.wav

     Peak level 99.1 %
     Extraction speed 9.9 X
     Track quality 100.0 %
     Test CRC 8F16BFEC
     Copy CRC 8F16BFEC
     Accurately ripped (confidence 1)  [B852C066]  (AR v2)
     Copy OK

Track 15

     Filename M:\EACRips\Paul Oakenfold - Generations - Three Decades of Dance {New State, NEW9197CD} (2017) [FLAC]\CD01 - House Mix\15 - Storm Queen - Look Right Through (MK Dub III Edit).wav

     Peak level 99.0 %
     Extraction speed 9.5 X
     Track quality 100.0 %
     Test CRC B9EFAD77
     Copy CRC B9EFAD77
     Accurately ripped (confidence 1)  [CA1E8ECB]  (AR v2)
     Copy OK

Track 16

     Filename M:\EACRips\Paul Oakenfold - Generations - Three Decades of Dance {New State, NEW9197CD} (2017) [FLAC]\CD01 - House Mix\16 - Deadmau5 & Kaskade - I Remember (Extended Version) [Edit].wav

     Peak level 98.8 %
     Extraction speed 10.5 X
     Track quality 100.0 %
     Test CRC 53E6B0C6
     Copy CRC 53E6B0C6
     Accurately ripped (confidence 1)  [AADFB8F9]  (AR v2)
     Copy OK

Track 17

     Filename M:\EACRips\Paul Oakenfold - Generations - Three Decades of Dance {New State, NEW9197CD} (2017) [FLAC]\CD01 - House Mix\17 - U2 - Beautiful Day (The Perfecto Mix).wav

     Peak level 98.8 %
     Extraction speed 11.3 X
     Track quality 100.0 %
     Test CRC 89CB92AE
     Copy CRC 89CB92AE
     Accurately ripped (confidence 1)  [3509C37A]  (AR v2)
     Copy OK

Track 18

     Filename M:\EACRips\Paul Oakenfold - Generations - Three Decades of Dance {New State, NEW9197CD} (2017) [FLAC]\CD01 - House Mix\18 - Mory Kante - Yeke Yeke (Hardfloor Mix).wav

     Peak level 98.8 %
     Extraction speed 10.9 X
     Track quality 100.0 %
     Test CRC 83595B9D
     Copy CRC 83595B9D
     Accurately ripped (confidence 1)  [5F50613B]  (AR v2)
     Copy OK

Track 19

     Filename M:\EACRips\Paul Oakenfold - Generations - Three Decades of Dance {New State, NEW9197CD} (2017) [FLAC]\CD01 - House Mix\19 - Underworld - Born Slippy Nuxx (Paul Oakenfold Remix).wav

     Peak level 98.9 %
     Extraction speed 11.2 X
     Track quality 100.0 %
     Test CRC 625AB9BC
     Copy CRC 625AB9BC
     Accurately ripped (confidence 1)  [58F5B17A]  (AR v2)
     Copy OK

Track 20

     Filename M:\EACRips\Paul Oakenfold - Generations - Three Decades of Dance {New State, NEW9197CD} (2017) [FLAC]\CD01 - House Mix\20 - Swedish House Mafia & Tinie Tempah - Miami 2 Ibiza (Instrumental).wav

     Peak level 99.0 %
     Extraction speed 10.7 X
     Track quality 100.0 %
     Test CRC 062AC9ED
     Copy CRC 062AC9ED
     Accurately ripped (confidence 1)  [542BF1CD]  (AR v2)
     Copy OK

All tracks accurately ripped

No errors occurred

End of status report

---- CUETools DB Plugin V2.1.6

[CTDB TOCID: 2r6t589LzCpyVozHt5oNOjH9EgI-] found
Submit result: 2r6t589LzCpyVozHt5oNOjH9EgI- has been confirmed
Track | CTDB Status
  1   | (12/12) Accurately ripped
  2   | (12/12) Accurately ripped
  3   | (12/12) Accurately ripped
  4   | (12/12) Accurately ripped
  5   | (12/12) Accurately ripped
  6   | (12/12) Accurately ripped
  7   | (12/12) Accurately ripped
  8   | (12/12) Accurately ripped
  9   | (12/12) Accurately ripped
 10   | (12/12) Accurately ripped
 11   | (12/12) Accurately ripped
 12   | (12/12) Accurately ripped
 13   | (12/12) Accurately ripped
 14   | (12/12) Accurately ripped
 15   | (12/12) Accurately ripped
 16   | (12/12) Accurately ripped
 17   | (12/12) Accurately ripped
 18   | (12/12) Accurately ripped
 19   | (12/12) Accurately ripped
 20   | (12/12) Accurately ripped

==== Log checksum 46454B3AE7A61058E322150BAD83EBC4B60EAE8000C777E9BADB20569EA22A31 ====

Код:

Exact Audio Copy V1.3 from 2. September 2016

EAC extraction logfile from 12. September 2017, 21:44

Paul Oakenfold / Generations - Three Decades Of Dance

Used drive  : ATAPI   iHAS122   E   Adapter: 1  ID: 0

Read mode               : Secure
Utilize accurate stream : Yes
Defeat audio cache      : Yes
Make use of C2 pointers : No

Read offset correction                      : 6
Overread into Lead-In and Lead-Out          : No
Fill up missing offset samples with silence : Yes
Delete leading and trailing silent blocks   : No
Null samples used in CRC calculations       : Yes
Used interface                              : Native Win32 interface for Win NT & 2000
Gap handling                                : Appended to previous track

Used output format              : User Defined Encoder
Selected bitrate                : 1024 kBit/s
Quality                         : High
Add ID3 tag                     : No
Command line compressor         : C:\Program Files (x86)\Exact Audio Copy\FLAC\FLAC.EXE
Additional command line options : -8 -e -p -V -T "ARTIST=%artist%" -T "TITLE=%title%" -T "ALBUM=%albumtitle%" -T "DATE=%year%" -T "TRACKNUMBER=%tracknr%" -T "GENRE=%genre%" -T "PERFORMER=%albuminterpret%" -T "COMPOSER=%composer%" %haslyrics%--tag-from-file=LYRICS="%lyricsfile%"%haslyrics% -T "ALBUMARTIST=%albumartist%" -T "DISCNUMBER=%cdnumber%" -T "TOTALDISCS=%totalcds%" -T "TOTALTRACKS=%numtracks%" -T "COMMENT=%comment%" %source% -o %dest%

TOC of the extracted CD

     Track |   Start  |  Length  | Start sector | End sector
    ---------------------------------------------------------
        1  |  0:00.00 |  3:49.54 |         0    |    17228
        2  |  3:49.54 |  3:36.68 |     17229    |    33496
        3  |  7:26.47 |  4:02.45 |     33497    |    51691
        4  | 11:29.17 |  3:33.21 |     51692    |    67687
        5  | 15:02.38 |  3:47.36 |     67688    |    84748
        6  | 18:49.74 |  5:02.01 |     84749    |   107399
        7  | 23:52.00 |  4:06.09 |    107400    |   125858
        8  | 27:58.09 |  3:23.42 |    125859    |   141125
        9  | 31:21.51 |  3:08.17 |    141126    |   155242
       10  | 34:29.68 |  4:59.35 |    155243    |   177702
       11  | 39:29.28 |  3:48.32 |    177703    |   194834
       12  | 43:17.60 |  5:01.01 |    194835    |   217410
       13  | 48:18.61 |  3:36.41 |    217411    |   233651
       14  | 51:55.27 |  4:02.47 |    233652    |   251848
       15  | 55:57.74 |  3:39.22 |    251849    |   268295
       16  | 59:37.21 |  2:31.07 |    268296    |   279627
       17  | 62:08.28 |  3:24.32 |    279628    |   294959
       18  | 65:32.60 |  3:06.37 |    294960    |   308946
       19  | 68:39.22 |  3:49.18 |    308947    |   326139
       20  | 72:28.40 |  3:01.08 |    326140    |   339722
       21  | 75:29.48 |  4:19.02 |    339723    |   359149

Track  1

     Filename M:\EACRips\Paul Oakenfold - Generations - Three Decades of Dance {New State, NEW9197CD} (2017) [FLAC]\CD02 - Trance Mix\01 - Salt Tank - Eugina (Reactivation Mix).wav

     Pre-gap length  0:00:02.00

     Peak level 98.8 %
     Extraction speed 4.7 X
     Track quality 99.9 %
     Test CRC 9D95A1E4
     Copy CRC 9D95A1E4
     Accurately ripped (confidence 1)  [8C546812]  (AR v2)
     Copy OK

Track  2

     Filename M:\EACRips\Paul Oakenfold - Generations - Three Decades of Dance {New State, NEW9197CD} (2017) [FLAC]\CD02 - Trance Mix\02 - Lost It.Com - Animal (Trance Mix).wav

     Peak level 98.8 %
     Extraction speed 6.1 X
     Track quality 100.0 %
     Test CRC 9C33A98A
     Copy CRC 9C33A98A
     Accurately ripped (confidence 1)  [089E61DF]  (AR v2)
     Copy OK

Track  3

     Filename M:\EACRips\Paul Oakenfold - Generations - Three Decades of Dance {New State, NEW9197CD} (2017) [FLAC]\CD02 - Trance Mix\03 - Chicane - Offshore (Disco Citizens Remix).wav

     Peak level 98.8 %
     Extraction speed 6.6 X
     Track quality 100.0 %
     Test CRC D0ABD9EE
     Copy CRC D0ABD9EE
     Accurately ripped (confidence 1)  [EC2549CF]  (AR v2)
     Copy OK

Track  4

     Filename M:\EACRips\Paul Oakenfold - Generations - Three Decades of Dance {New State, NEW9197CD} (2017) [FLAC]\CD02 - Trance Mix\04 - Tilt - Children (Tilt's Courtyard Mix).wav

     Peak level 98.8 %
     Extraction speed 6.8 X
     Track quality 100.0 %
     Test CRC 98ED438D
     Copy CRC 98ED438D
     Accurately ripped (confidence 1)  [E66197FB]  (AR v2)
     Copy OK

Track  5

     Filename M:\EACRips\Paul Oakenfold - Generations - Three Decades of Dance {New State, NEW9197CD} (2017) [FLAC]\CD02 - Trance Mix\05 - Tastexperience - Highlander.wav

     Peak level 98.8 %
     Extraction speed 7.3 X
     Track quality 100.0 %
     Test CRC F268002C
     Copy CRC F268002C
     Accurately ripped (confidence 1)  [D14FA71F]  (AR v2)
     Copy OK

Track  6

     Filename M:\EACRips\Paul Oakenfold - Generations - Three Decades of Dance {New State, NEW9197CD} (2017) [FLAC]\CD02 - Trance Mix\06 - Paul Oakenfold - Southern Sun (DJ Tiesto Mix).wav

     Peak level 98.8 %
     Extraction speed 7.9 X
     Track quality 100.0 %
     Test CRC 63EB4789
     Copy CRC 63EB4789
     Accurately ripped (confidence 1)  [01BF807B]  (AR v2)
     Copy OK

Track  7

     Filename M:\EACRips\Paul Oakenfold - Generations - Three Decades of Dance {New State, NEW9197CD} (2017) [FLAC]\CD02 - Trance Mix\07 - Faithless - Salva Mea (Sister Bliss Remix).wav

     Peak level 98.8 %
     Extraction speed 8.1 X
     Track quality 100.0 %
     Test CRC 2992A5EB
     Copy CRC 2992A5EB
     Accurately ripped (confidence 1)  [DA3CBD17]  (AR v2)
     Copy OK

Track  8

     Filename M:\EACRips\Paul Oakenfold - Generations - Three Decades of Dance {New State, NEW9197CD} (2017) [FLAC]\CD02 - Trance Mix\08 - Planet Perfecto Knights - Resurection (EC Twins & Remy Le Duc Remix).wav

     Peak level 98.8 %
     Extraction speed 8.2 X
     Track quality 100.0 %
     Test CRC 98D384A2
     Copy CRC 98D384A2
     Accurately ripped (confidence 1)  [29DFAEC0]  (AR v2)
     Copy OK

Track  9

     Filename M:\EACRips\Paul Oakenfold - Generations - Three Decades of Dance {New State, NEW9197CD} (2017) [FLAC]\CD02 - Trance Mix\09 - Timo Maas ft. Martin Bettinghaus - Ubik (The Dance).wav

     Peak level 98.8 %
     Extraction speed 6.7 X
     Track quality 99.9 %
     Test CRC 2C95FE23
     Copy CRC 2C95FE23
     Accurately ripped (confidence 1)  [DAE7DAE3]  (AR v2)
     Copy OK

Track 10

     Filename M:\EACRips\Paul Oakenfold - Generations - Three Decades of Dance {New State, NEW9197CD} (2017) [FLAC]\CD02 - Trance Mix\10 - Der Dritte Raum - Hale Bopp (Raumgleiter Version).wav

     Peak level 98.8 %
     Extraction speed 7.9 X
     Track quality 99.9 %
     Test CRC 244B93AC
     Copy CRC 244B93AC
     Accurately ripped (confidence 1)  [71DBC9B2]  (AR v2)
     Copy OK

Track 11

     Filename M:\EACRips\Paul Oakenfold - Generations - Three Decades of Dance {New State, NEW9197CD} (2017) [FLAC]\CD02 - Trance Mix\11 - Paul Oakenfold - Barber's Adagio For Strings.wav

     Peak level 98.8 %
     Extraction speed 8.0 X
     Track quality 99.9 %
     Test CRC F9889C56
     Copy CRC F9889C56
     Accurately ripped (confidence 1)  [E278A6D4]  (AR v2)
     Copy OK

Track 12

     Filename M:\EACRips\Paul Oakenfold - Generations - Three Decades of Dance {New State, NEW9197CD} (2017) [FLAC]\CD02 - Trance Mix\12 - Da Hool - Meet Her At The Loveparade (Nalin & Kane Remix).wav

     Peak level 98.8 %
     Extraction speed 10.4 X
     Track quality 100.0 %
     Test CRC FD07AFBE
     Copy CRC FD07AFBE
     Accurately ripped (confidence 1)  [606C3FCB]  (AR v2)
     Copy OK

Track 13

     Filename M:\EACRips\Paul Oakenfold - Generations - Three Decades of Dance {New State, NEW9197CD} (2017) [FLAC]\CD02 - Trance Mix\13 - Chakra - Home (Salt Tank Reconstruction).wav

     Peak level 98.8 %
     Extraction speed 10.3 X
     Track quality 100.0 %
     Test CRC 625DCFC2
     Copy CRC 625DCFC2
     Accurately ripped (confidence 1)  [7C9E0B0D]  (AR v2)
     Copy OK

Track 14

     Filename M:\EACRips\Paul Oakenfold - Generations - Three Decades of Dance {New State, NEW9197CD} (2017) [FLAC]\CD02 - Trance Mix\14 - Grace - Skin On Skin (Orange Mix).wav

     Peak level 98.8 %
     Extraction speed 10.7 X
     Track quality 100.0 %
     Test CRC 84702AC1
     Copy CRC 84702AC1
     Accurately ripped (confidence 1)  [43AFD260]  (AR v2)
     Copy OK

Track 15

     Filename M:\EACRips\Paul Oakenfold - Generations - Three Decades of Dance {New State, NEW9197CD} (2017) [FLAC]\CD02 - Trance Mix\15 - Paul Oakenfold & Cassandra Fox - Touch Me (Perfecto Club Mix).wav

     Peak level 96.0 %
     Extraction speed 10.9 X
     Track quality 100.0 %
     Test CRC BEDDA202
     Copy CRC BEDDA202
     Accurately ripped (confidence 1)  [D80F4E57]  (AR v2)
     Copy OK

Track 16

     Filename M:\EACRips\Paul Oakenfold - Generations - Three Decades of Dance {New State, NEW9197CD} (2017) [FLAC]\CD02 - Trance Mix\16 - Jam & Spoon - Stella.wav

     Peak level 98.8 %
     Extraction speed 10.2 X
     Track quality 100.0 %
     Test CRC 319B306B
     Copy CRC 319B306B
     Accurately ripped (confidence 1)  [0DAC9815]  (AR v2)
     Copy OK

Track 17

     Filename M:\EACRips\Paul Oakenfold - Generations - Three Decades of Dance {New State, NEW9197CD} (2017) [FLAC]\CD02 - Trance Mix\17 - Planet Perfecto - Bullet In The Gun (Saturday Mix).wav

     Peak level 98.8 %
     Extraction speed 11.1 X
     Track quality 100.0 %
     Test CRC AC38061D
     Copy CRC AC38061D
     Accurately ripped (confidence 1)  [D6B62445]  (AR v2)
     Copy OK

Track 18

     Filename M:\EACRips\Paul Oakenfold - Generations - Three Decades of Dance {New State, NEW9197CD} (2017) [FLAC]\CD02 - Trance Mix\18 - Amoebaassassin - Pile Driver (Grayed Out Summer Mix).wav

     Peak level 98.8 %
     Extraction speed 11.1 X
     Track quality 100.0 %
     Test CRC D207CFC1
     Copy CRC D207CFC1
     Accurately ripped (confidence 1)  [D8BB0109]  (AR v2)
     Copy OK

Track 19

     Filename M:\EACRips\Paul Oakenfold - Generations - Three Decades of Dance {New State, NEW9197CD} (2017) [FLAC]\CD02 - Trance Mix\19 - Schiller - Das Glockenspiel (Humate Remix).wav

     Peak level 98.8 %
     Extraction speed 11.7 X
     Track quality 100.0 %
     Test CRC F00612D4
     Copy CRC F00612D4
     Accurately ripped (confidence 1)  [5A61107A]  (AR v2)
     Copy OK

Track 20

     Filename M:\EACRips\Paul Oakenfold - Generations - Three Decades of Dance {New State, NEW9197CD} (2017) [FLAC]\CD02 - Trance Mix\20 - L.S.G. - Netherworld (Vinyl Cut).wav

     Peak level 98.8 %
     Extraction speed 11.4 X
     Track quality 100.0 %
     Test CRC 0B92618B
Copy CRC 0B92618B
     Accurately ripped (confidence 1)  [5FFC7D88]  (AR v2)
     Copy OK

Track 21

     Filename M:\EACRips\Paul Oakenfold - Generations - Three Decades of Dance {New State, NEW9197CD} (2017) [FLAC]\CD02 - Trance Mix\21 - Grace - Not Over Yet (Perfecto Edit).wav

     Peak level 98.8 %
     Extraction speed 12.3 X
     Track quality 100.0 %
     Test CRC 8637BE43
     Copy CRC 8637BE43
     Accurately ripped (confidence 1)  [3BDFD5A4]  (AR v2)
     Copy OK

All tracks accurately ripped

No errors occurred

End of status report

---- CUETools DB Plugin V2.1.6

[CTDB TOCID: PBeJJFM2uKyUHq59aFNbS7VrpM0-] found
Submit result: already submitted
Track | CTDB Status
  1   | (13/13) Accurately ripped
  2   | (13/13) Accurately ripped
  3   | (13/13) Accurately ripped
  4   | (13/13) Accurately ripped
  5   | (13/13) Accurately ripped
  6   | (13/13) Accurately ripped
  7   | (13/13) Accurately ripped
  8   | (13/13) Accurately ripped
  9   | (13/13) Accurately ripped
 10   | (13/13) Accurately ripped
 11   | (13/13) Accurately ripped
 12   | (13/13) Accurately ripped
 13   | (13/13) Accurately ripped
 14   | (12/13) Accurately ripped
 15   | (13/13) Accurately ripped
 16   | (13/13) Accurately ripped
 17   | (13/13) Accurately ripped
 18   | (13/13) Accurately ripped
 19   | (13/13) Accurately ripped
 20   | (13/13) Accurately ripped
 21   | (13/13) Accurately ripped

==== Log checksum 75A9F04D3F44C9143AAE4303A314FC8C1F5947C3B7B58842BBA39BE22E15C6B3 ====

Код:

Exact Audio Copy V1.3 from 2. September 2016

EAC extraction logfile from 12. September 2017, 22:29

Paul Oakenfold / Generations - Three Decades Of Dance

Used drive  : ATAPI   iHAS122   E   Adapter: 1  ID: 0

Read mode               : Secure
Utilize accurate stream : Yes
Defeat audio cache      : Yes
Make use of C2 pointers : No

Read offset correction                      : 6
Overread into Lead-In and Lead-Out          : No
Fill up missing offset samples with silence : Yes
Delete leading and trailing silent blocks   : No
Null samples used in CRC calculations       : Yes
Used interface                              : Native Win32 interface for Win NT & 2000
Gap handling                                : Appended to previous track

Used output format              : User Defined Encoder
Selected bitrate                : 1024 kBit/s
Quality                         : High
Add ID3 tag                     : No
Command line compressor         : C:\Program Files (x86)\Exact Audio Copy\FLAC\FLAC.EXE
Additional command line options : -8 -e -p -V -T "ARTIST=%artist%" -T "TITLE=%title%" -T "ALBUM=%albumtitle%" -T "DATE=%year%" -T "TRACKNUMBER=%tracknr%" -T "GENRE=%genre%" -T "PERFORMER=%albuminterpret%" -T "COMPOSER=%composer%" %haslyrics%--tag-from-file=LYRICS="%lyricsfile%"%haslyrics% -T "ALBUMARTIST=%albumartist%" -T "DISCNUMBER=%cdnumber%" -T "TOTALDISCS=%totalcds%" -T "TOTALTRACKS=%numtracks%" -T "COMMENT=%comment%" %source% -o %dest%

TOC of the extracted CD

     Track |   Start  |  Length  | Start sector | End sector
    ---------------------------------------------------------
        1  |  0:00.00 |  4:04.17 |         0    |    18316
        2  |  4:04.17 |  4:16.63 |     18317    |    37579
        3  |  8:21.05 |  5:18.62 |     37580    |    61491
        4  | 13:39.67 |  3:26.66 |     61492    |    77007
        5  | 17:06.58 |  3:14.30 |     77008    |    91587
        6  | 20:21.13 |  3:51.26 |     91588    |   108938
        7  | 24:12.39 |  4:35.59 |    108939    |   129622
        8  | 28:48.23 |  3:53.70 |    129623    |   147167
        9  | 32:42.18 |  2:56.25 |    147168    |   160392
       10  | 35:38.43 |  3:42.20 |    160393    |   177062
       11  | 39:20.63 |  5:15.43 |    177063    |   200730
       12  | 44:36.31 |  5:35.20 |    200731    |   225875
       13  | 50:11.51 |  3:36.65 |    225876    |   242140
       14  | 53:48.41 |  3:14.72 |    242141    |   256762
       15  | 57:03.38 |  4:54.17 |    256763    |   278829
       16  | 61:57.55 |  4:05.35 |    278830    |   297239
       17  | 66:03.15 |  4:30.27 |    297240    |   317516
       18  | 70:33.42 |  4:39.38 |    317517    |   338479
       19  | 75:13.05 |  3:55.22 |    338480    |   356126

Track  1

     Filename M:\EACRips\Paul Oakenfold - Generations - Three Decades of Dance {New State, NEW9197CD} (2017) [FLAC]\CD03 - Ibiza Mix\01 - Frankie Knuckles ft. Jamie Principle - Your Love.wav

     Pre-gap length  0:00:02.00

     Peak level 99.0 %
     Extraction speed 5.7 X
     Track quality 100.0 %
     Test CRC 416C427E
     Copy CRC 416C427E
     Accurately ripped (confidence 1)  [DA3D0B33]  (AR v2)
     Copy OK

Track  2

     Filename M:\EACRips\Paul Oakenfold - Generations - Three Decades of Dance {New State, NEW9197CD} (2017) [FLAC]\CD03 - Ibiza Mix\02 - Electra - Jibaro.wav

     Peak level 99.0 %
     Extraction speed 6.3 X
     Track quality 100.0 %
     Test CRC 06AC9B65
     Copy CRC 06AC9B65
     Accurately ripped (confidence 1)  [6166E445]  (AR v2)
     Copy OK

Track  3

     Filename M:\EACRips\Paul Oakenfold - Generations - Three Decades of Dance {New State, NEW9197CD} (2017) [FLAC]\CD03 - Ibiza Mix\03 - It's Immaterial - Driving Away From Home (Wicked Weather For Walking).wav

     Peak level 98.9 %
     Extraction speed 7.0 X
     Track quality 100.0 %
     Test CRC 153D1020
     Copy CRC 153D1020
     Accurately ripped (confidence 1)  [ED2DBA1A]  (AR v2)
     Copy OK

Track  4

     Filename M:\EACRips\Paul Oakenfold - Generations - Three Decades of Dance {New State, NEW9197CD} (2017) [FLAC]\CD03 - Ibiza Mix\04 - Simple Minds - Theme For Great Cities.wav

     Peak level 98.8 %
     Extraction speed 7.0 X
     Track quality 100.0 %
     Test CRC 933E750C
     Copy CRC 933E750C
     Accurately ripped (confidence 1)  [DD946A29]  (AR v2)
     Copy OK

Track  5

     Filename M:\EACRips\Paul Oakenfold - Generations - Three Decades of Dance {New State, NEW9197CD} (2017) [FLAC]\CD03 - Ibiza Mix\05 - The Beloved - The Sun Rising (Deeply Satisfying Mix).wav

     Peak level 98.8 %
     Extraction speed 7.2 X
     Track quality 100.0 %
     Test CRC D068D10E
     Copy CRC D068D10E
     Accurately ripped (confidence 1)  [0B20DF14]  (AR v2)
     Copy OK

Track  6

     Filename M:\EACRips\Paul Oakenfold - Generations - Three Decades of Dance {New State, NEW9197CD} (2017) [FLAC]\CD03 - Ibiza Mix\06 - Orbital - Belfast.wav

     Peak level 98.9 %
     Extraction speed 7.8 X
     Track quality 100.0 %
     Test CRC 5FAD5BD3
     Copy CRC 5FAD5BD3
     Accurately ripped (confidence 1)  [6DDE2BA6]  (AR v2)
     Copy OK

Track  7

     Filename M:\EACRips\Paul Oakenfold - Generations - Three Decades of Dance {New State, NEW9197CD} (2017) [FLAC]\CD03 - Ibiza Mix\07 - Leftfield - Release The Pressure (The Desert Edit).wav

     Peak level 98.8 %
     Extraction speed 8.3 X
     Track quality 100.0 %
     Test CRC B7FE7AAF
     Copy CRC B7FE7AAF
     Accurately ripped (confidence 1)  [CEF776EC]  (AR v2)
     Copy OK

Track  8

     Filename M:\EACRips\Paul Oakenfold - Generations - Three Decades of Dance {New State, NEW9197CD} (2017) [FLAC]\CD03 - Ibiza Mix\08 - The Grid - Floatation.wav

     Peak level 95.7 %
     Extraction speed 8.4 X
     Track quality 100.0 %
     Test CRC 6F509805
     Copy CRC 6F509805
     Accurately ripped (confidence 1)  [C1E6B9A4]  (AR v2)
     Copy OK

Track  9

     Filename M:\EACRips\Paul Oakenfold - Generations - Three Decades of Dance {New State, NEW9197CD} (2017) [FLAC]\CD03 - Ibiza Mix\09 - Saint Etienne - Only Love Can Break Your Heart (Andrew Weatherall Remix).wav

     Peak level 98.9 %
     Extraction speed 8.4 X
     Track quality 100.0 %
     Test CRC 8489337F
     Copy CRC 8489337F
     Accurately ripped (confidence 1)  [CF2DCA35]  (AR v2)
     Copy OK

Track 10

     Filename M:\EACRips\Paul Oakenfold - Generations - Three Decades of Dance {New State, NEW9197CD} (2017) [FLAC]\CD03 - Ibiza Mix\10 - Carly Simon - Why (Radio Edit).wav

     Peak level 98.8 %
     Extraction speed 9.0 X
     Track quality 100.0 %
     Test CRC A1443E63
     Copy CRC A1443E63
     Accurately ripped (confidence 1)  [3C8855C9]  (AR v2)
     Copy OK

Track 11

     Filename M:\EACRips\Paul Oakenfold - Generations - Three Decades of Dance {New State, NEW9197CD} (2017) [FLAC]\CD03 - Ibiza Mix\11 - Happy Mondays - Hallelujah (Club Mix).wav

     Peak level 98.9 %
     Extraction speed 9.6 X
     Track quality 100.0 %
     Test CRC 15464FAF
     Copy CRC 15464FAF
     Accurately ripped (confidence 1)  [3F27DD7E]  (AR v2)
     Copy OK

Track 12

     Filename M:\EACRips\Paul Oakenfold - Generations - Three Decades of Dance {New State, NEW9197CD} (2017) [FLAC]\CD03 - Ibiza Mix\12 - William Pitt - City Lights.wav

     Peak level 98.8 %
     Extraction speed 10.0 X
     Track quality 100.0 %
     Test CRC 56EF8DBF
     Copy CRC 56EF8DBF
     Accurately ripped (confidence 1)  [526BD8AE]  (AR v2)
     Copy OK

Track 13

     Filename M:\EACRips\Paul Oakenfold - Generations - Three Decades of Dance {New State, NEW9197CD} (2017) [FLAC]\CD03 - Ibiza Mix\13 - Cyndi Lauper - What's Going On (Club Version).wav

     Peak level 98.8 %
     Extraction speed 9.8 X
     Track quality 100.0 %
     Test CRC 891DF0E3
     Copy CRC 891DF0E3
     Accurately ripped (confidence 1)  [E6241761]  (AR v2)
     Copy OK

Track 14

     Filename M:\EACRips\Paul Oakenfold - Generations - Three Decades of Dance {New State, NEW9197CD} (2017) [FLAC]\CD03 - Ibiza Mix\14 - Thrashing Doves - Jesus On The Payroll (Street Groove).wav

     Peak level 98.9 %
     Extraction speed 9.8 X
     Track quality 100.0 %
     Test CRC 5B56AD65
     Copy CRC 5B56AD65
     Accurately ripped (confidence 1)  [1F39C2F2]  (AR v2)
     Copy OK

Track 15

     Filename M:\EACRips\Paul Oakenfold - Generations - Three Decades of Dance {New State, NEW9197CD} (2017) [FLAC]\CD03 - Ibiza Mix\15 - Izit - Stories (I've A Novella Mix).wav

     Peak level 98.9 %
     Extraction speed 10.7 X
     Track quality 100.0 %
     Test CRC C072167A
     Copy CRC C072167A
     Accurately ripped (confidence 1)  [77B8B252]  (AR v2)
     Copy OK

Track 16

     Filename M:\EACRips\Paul Oakenfold - Generations - Three Decades of Dance {New State, NEW9197CD} (2017) [FLAC]\CD03 - Ibiza Mix\16 - The Cure - Lullaby (Extended Mix).wav

     Peak level 99.3 %
     Extraction speed 10.7 X
     Track quality 100.0 %
     Test CRC 9F8ED16D
     Copy CRC 9F8ED16D
     Accurately ripped (confidence 1)  [7E923FD0]  (AR v2)
     Copy OK

Track 17

     Filename M:\EACRips\Paul Oakenfold - Generations - Three Decades of Dance {New State, NEW9197CD} (2017) [FLAC]\CD03 - Ibiza Mix\17 - Red Box - Enjoy (Solid Gold Easy Amex).wav

     Peak level 99.0 %
     Extraction speed 11.1 X
     Track quality 100.0 %
     Test CRC 5A5CEC5C
     Copy CRC 5A5CEC5C
     Accurately ripped (confidence 1)  [2BA2699A]  (AR v2)
     Copy OK

Track 18

     Filename M:\EACRips\Paul Oakenfold - Generations - Three Decades of Dance {New State, NEW9197CD} (2017) [FLAC]\CD03 - Ibiza Mix\18 - The Stone Roses - Waterfall (12'' Mix).wav

     Peak level 98.8 %
     Extraction speed 9.7 X
     Track quality 99.9 %
     Test CRC FFEE0657
     Copy CRC FFEE0657
     Accurately ripped (confidence 1)  [34388B98]  (AR v2)
     Copy OK

Track 19

     Filename M:\EACRips\Paul Oakenfold - Generations - Three Decades of Dance {New State, NEW9197CD} (2017) [FLAC]\CD03 - Ibiza Mix\19 - The Woodentops - Why Why Why.wav

     Peak level 79.4 %
     Extraction speed 11.3 X
     Track quality 100.0 %
     Test CRC 8319831C
     Copy CRC 8319831C
     Accurately ripped (confidence 1)  [A342222B]  (AR v2)
     Copy OK

All tracks accurately ripped

No errors occurred

End of status report

---- CUETools DB Plugin V2.1.6

[CTDB TOCID: .vDo8W3sTz1XxY3J8lb7Ub_K2yQ-] found
Submit result: .vDo8W3sTz1XxY3J8lb7Ub_K2yQ- has been confirmed
Track | CTDB Status
  1   | (9/9) Accurately ripped
  2   | (9/9) Accurately ripped
  3   | (9/9) Accurately ripped
  4   | (9/9) Accurately ripped
  5   | (9/9) Accurately ripped
  6   | (9/9) Accurately ripped
  7   | (9/9) Accurately ripped
  8   | (9/9) Accurately ripped
  9   | (9/9) Accurately ripped
 10   | (9/9) Accurately ripped
 11   | (9/9) Accurately ripped
 12   | (9/9) Accurately ripped
 13   | (9/9) Accurately ripped
 14   | (9/9) Accurately ripped
 15   | (9/9) Accurately ripped
 16   | (9/9) Accurately ripped
 17   | (9/9) Accurately ripped
 18   | (9/9) Accurately ripped
 19   | (9/9) Accurately ripped

==== Log checksum 05214D492B5939DD4B004F913B9D713658564E543D38EDBDCC070988D46A55FB ====

Код:

REM GENRE Dance
REM DATE 2017
REM DISCID 1612AD14
REM COMMENT "ExactAudioCopy v1.3"
PERFORMER "Paul Oakenfold"
TITLE "Generations - Three Decades Of Dance"
REM COMPOSER ""
FILE "01 - Sueсo Latino - Sueno Latino (With Manuel Goettsching) [Performing E2E4] [Paradise Version].wav" WAVE
  TRACK 01 AUDIO
    TITLE "Sueno Latino (With Manuel Goettsching) [Performing E2E4] [Paradise Version]"
    PERFORMER "Sueсo Latino"
    REM COMPOSER ""
    INDEX 01 00:00:00
FILE "02 - M,A,R,R,S - Pump Up The Volume.wav" WAVE
  TRACK 02 AUDIO
    TITLE "Pump Up The Volume"
    PERFORMER "M/A/R/R/S"
    REM COMPOSER ""
    INDEX 01 00:00:00
FILE "03 - Steve ''Silk'' Hurley - Jack Your Body (Club Your Body).wav" WAVE
  TRACK 03 AUDIO
    TITLE "Jack Your Body (Club Your Body)"
    PERFORMER "Steve 'Silk' Hurley"
    REM COMPOSER ""
    INDEX 01 00:00:00
FILE "04 - Joe Smooth - Promised Land.wav" WAVE
  TRACK 04 AUDIO
    TITLE "Promised Land"
    PERFORMER "Joe Smooth"
    REM COMPOSER ""
    INDEX 01 00:00:00
FILE "05 - CeCe Rogers - Someday (Club Mix).wav" WAVE
  TRACK 05 AUDIO
    TITLE "Someday (Club Mix)"
    PERFORMER "CeCe Rogers"
    REM COMPOSER ""
    INDEX 01 00:00:00
FILE "06 - Marshall Jefferson - Move Your Body (The House Music Anthem) [Extended Mix].wav" WAVE
  TRACK 06 AUDIO
    TITLE "Move Your Body (The House Music Anthem) [Extended Mix]"
    PERFORMER "Marshall Jefferson"
    REM COMPOSER ""
    INDEX 01 00:00:00
FILE "07 - The Adventures Of Stevie V - Dirty Cash (Sold Out 7'' Edit).wav" WAVE
  TRACK 07 AUDIO
    TITLE "Dirty Cash (Sold Out 7' Edit)"
    PERFORMER "The Adventures Of Stevie V"
    REM COMPOSER ""
    INDEX 01 00:00:00
FILE "08 - Inner City - Good Life (Mayday Club Mix).wav" WAVE
  TRACK 08 AUDIO
    TITLE "Good Life (Mayday Club Mix)"
    PERFORMER "Inner City"
    REM COMPOSER ""
    INDEX 01 00:00:00
FILE "09 - Black Box - Ride On Time (Massive Mix).wav" WAVE
  TRACK 09 AUDIO
    TITLE "Ride On Time (Massive Mix)"
    PERFORMER "Black Box"
    REM COMPOSER ""
    INDEX 01 00:00:00
FILE "10 - Everything But The Girl - Missing (Todd Terry Remix).wav" WAVE
  TRACK 10 AUDIO
    TITLE "Missing (Todd Terry Remix)"
    PERFORMER "Everything But The Girl"
    REM COMPOSER ""
    INDEX 01 00:00:00
FILE "11 - Dirty Vegas - Days Go By.wav" WAVE
  TRACK 11 AUDIO
    TITLE "Days Go By"
    PERFORMER "Dirty Vegas"
    REM COMPOSER ""
    INDEX 01 00:00:00
FILE "12 - Robin S. - Show Me Love (Stonebridge Club Mix).wav" WAVE
  TRACK 12 AUDIO
    TITLE "Show Me Love (Stonebridge Club Mix)"
    PERFORMER "Robin S."
    REM COMPOSER ""
    INDEX 01 00:00:00
FILE "13 - Eric Prydz - Pjanoo.wav" WAVE
  TRACK 13 AUDIO
    TITLE "Pjanoo"
    PERFORMER "Eric Prydz"
    REM COMPOSER ""
    INDEX 01 00:00:00
FILE "14 - Jay Dee - Plastic Dreams.wav" WAVE
  TRACK 14 AUDIO
    TITLE "Plastic Dreams"
    PERFORMER "Jay Dee"
    REM COMPOSER ""
    INDEX 01 00:00:00
FILE "15 - Storm Queen - Look Right Through (MK Dub III Edit).wav" WAVE
  TRACK 15 AUDIO
    TITLE "Look Right Through (MK Dub III Edit)"
    PERFORMER "Storm Queen"
    REM COMPOSER ""
    INDEX 01 00:00:00
FILE "16 - Deadmau5 & Kaskade - I Remember (Extended Version) [Edit].wav" WAVE
  TRACK 16 AUDIO
    TITLE "I Remember (Extended Version) [Edit]"
    PERFORMER "Deadmau5 & Kaskade"
    REM COMPOSER ""
    INDEX 01 00:00:00
FILE "17 - U2 - Beautiful Day (The Perfecto Mix).wav" WAVE
  TRACK 17 AUDIO
    TITLE "Beautiful Day (The Perfecto Mix)"
    PERFORMER "U2"
    REM COMPOSER ""
    INDEX 01 00:00:00
FILE "18 - Mory Kante - Yeke Yeke (Hardfloor Mix).wav" WAVE
  TRACK 18 AUDIO
    TITLE "Yeke Yeke (Hardfloor Mix)"
    PERFORMER "Mory Kante"
    REM COMPOSER ""
    INDEX 01 00:00:00
FILE "19 - Underworld - Born Slippy Nuxx (Paul Oakenfold Remix).wav" WAVE
  TRACK 19 AUDIO
    TITLE "Born Slippy Nuxx (Paul Oakenfold Remix)"
    PERFORMER "Underworld"
    REM COMPOSER ""
    INDEX 01 00:00:00
FILE "20 - Swedish House Mafia & Tinie Tempah - Miami 2 Ibiza (Instrumental).wav" WAVE
  TRACK 20 AUDIO
    TITLE "Miami 2 Ibiza (Instrumental)"
    PERFORMER "Swedish House Mafia & Tinie Tempah"
    REM COMPOSER ""
    INDEX 01 00:00:00

Код:

REM GENRE Electronic
REM DATE 2017
REM DISCID 1F12B415
REM COMMENT "ExactAudioCopy v1.3"
PERFORMER "Paul Oakenfold"
TITLE "Generations - Three Decades Of Dance"
REM COMPOSER ""
FILE "01 - Salt Tank - Eugina (Reactivation Mix).wav" WAVE
  TRACK 01 AUDIO
    TITLE "Eugina (Reactivation Mix)"
    PERFORMER "Salt Tank"
    REM COMPOSER ""
    INDEX 01 00:00:00
FILE "02 - Lost It.Com - Animal (Trance Mix).wav" WAVE
  TRACK 02 AUDIO
    TITLE "Animal (Trance Mix)"
    PERFORMER "Lost It.Com"
    REM COMPOSER ""
    INDEX 01 00:00:00
FILE "03 - Chicane - Offshore (Disco Citizens Remix).wav" WAVE
  TRACK 03 AUDIO
    TITLE "Offshore (Disco Citizens Remix)"
    PERFORMER "Chicane"
    REM COMPOSER ""
    INDEX 01 00:00:00
FILE "04 - Tilt - Children (Tilt's Courtyard Mix).wav" WAVE
  TRACK 04 AUDIO
    TITLE "Children (Tilt's Courtyard Mix)"
    PERFORMER "Tilt"
    REM COMPOSER ""
    INDEX 01 00:00:00
FILE "05 - Tastexperience - Highlander.wav" WAVE
  TRACK 05 AUDIO
    TITLE "Highlander"
    PERFORMER "Tastexperience"
    REM COMPOSER ""
    INDEX 01 00:00:00
FILE "06 - Paul Oakenfold - Southern Sun (DJ Tiesto Mix).wav" WAVE
  TRACK 06 AUDIO
    TITLE "Southern Sun (DJ Tiesto Mix)"
    PERFORMER "Paul Oakenfold"
    REM COMPOSER ""
    INDEX 01 00:00:00
FILE "07 - Faithless - Salva Mea (Sister Bliss Remix).wav" WAVE
  TRACK 07 AUDIO
    TITLE "Salva Mea (Sister Bliss Remix)"
    PERFORMER "Faithless"
    REM COMPOSER ""
    INDEX 01 00:00:00
FILE "08 - Planet Perfecto Knights - Resurection (EC Twins & Remy Le Duc Remix).wav" WAVE
  TRACK 08 AUDIO
    TITLE "Resurection (EC Twins & Remy Le Duc Remix)"
    PERFORMER "Planet Perfecto Knights"
    REM COMPOSER ""
    INDEX 01 00:00:00
FILE "09 - Timo Maas ft. Martin Bettinghaus - Ubik (The Dance).wav" WAVE
  TRACK 09 AUDIO
    TITLE "Ubik (The Dance)"
    PERFORMER "Timo Maas ft. Martin Bettinghaus"
    REM COMPOSER ""
    INDEX 01 00:00:00
FILE "10 - Der Dritte Raum - Hale Bopp (Raumgleiter Version).wav" WAVE
  TRACK 10 AUDIO
    TITLE "Hale Bopp (Raumgleiter Version)"
    PERFORMER "Der Dritte Raum"
    REM COMPOSER ""
    INDEX 01 00:00:00
FILE "11 - Paul Oakenfold - Barber's Adagio For Strings.wav" WAVE
  TRACK 11 AUDIO
    TITLE "Barber's Adagio For Strings"
    PERFORMER "Paul Oakenfold"
    REM COMPOSER ""
    INDEX 01 00:00:00
FILE "12 - Da Hool - Meet Her At The Loveparade (Nalin & Kane Remix).wav" WAVE
  TRACK 12 AUDIO
    TITLE "Meet Her At The Loveparade (Nalin & Kane Remix)"
    PERFORMER "Da Hool"
    REM COMPOSER ""
    INDEX 01 00:00:00
FILE "13 - Chakra - Home (Salt Tank Reconstruction).wav" WAVE
  TRACK 13 AUDIO
    TITLE "Home (Salt Tank Reconstruction)"
    PERFORMER "Chakra"
    REM COMPOSER ""
    INDEX 01 00:00:00
FILE "14 - Grace - Skin On Skin (Orange Mix).wav" WAVE
  TRACK 14 AUDIO
    TITLE "Skin On Skin (Orange Mix)"
    PERFORMER "Grace"
    REM COMPOSER ""
    INDEX 01 00:00:00
FILE "15 - Paul Oakenfold & Cassandra Fox - Touch Me (Perfecto Club Mix).wav" WAVE
  TRACK 15 AUDIO
    TITLE "Touch Me (Perfecto Club Mix)"
    PERFORMER "Paul Oakenfold & Cassandra Fox"
    REM COMPOSER ""
    INDEX 01 00:00:00
FILE "16 - Jam & Spoon - Stella.wav" WAVE
  TRACK 16 AUDIO
    TITLE "Stella"
    PERFORMER "Jam & Spoon"
    REM COMPOSER ""
    INDEX 01 00:00:00
FILE "17 - Planet Perfecto - Bullet In The Gun (Saturday Mix).wav" WAVE
  TRACK 17 AUDIO
    TITLE "Bullet In The Gun (Saturday Mix)"
    PERFORMER "Planet Perfecto"
    REM COMPOSER ""
    INDEX 01 00:00:00
FILE "18 - Amoebaassassin - Pile Driver (Grayed Out Summer Mix).wav" WAVE
  TRACK 18 AUDIO
    TITLE "Pile Driver (Grayed Out Summer Mix)"
    PERFORMER "Amoebaassassin"
    REM COMPOSER ""
    INDEX 01 00:00:00
FILE "19 - Schiller - Das Glockenspiel (Humate Remix).wav" WAVE
  TRACK 19 AUDIO
    TITLE "Das Glockenspiel (Humate Remix)"
    PERFORMER "Schiller"
    REM COMPOSER ""
    INDEX 01 00:00:00
FILE "20 - L.S.G. - Netherworld (Vinyl Cut).wav" WAVE
  TRACK 20 AUDIO
    TITLE "Netherworld (Vinyl Cut)"
    PERFORMER "L.S.G."
    REM COMPOSER ""
    INDEX 01 00:00:00
FILE "21 - Grace - Not Over Yet (Perfecto Edit).wav" WAVE
  TRACK 21 AUDIO
    TITLE "Not Over Yet (Perfecto Edit)"
    PERFORMER "Grace"
    REM COMPOSER ""
    INDEX 01 00:00:00

Код:

REM GENRE Electronic
REM DATE 2017
REM DISCID F1128C13
REM COMMENT "ExactAudioCopy v1.3"
PERFORMER "Paul Oakenfold"
TITLE "Generations - Three Decades Of Dance"
REM COMPOSER ""
FILE "01 - Frankie Knuckles ft. Jamie Principle - Your Love.wav" WAVE
  TRACK 01 AUDIO
    TITLE "Your Love"
    PERFORMER "Frankie Knuckles ft. Jamie Principle"
    REM COMPOSER ""
    INDEX 01 00:00:00
FILE "02 - Electra - Jibaro.wav" WAVE
  TRACK 02 AUDIO
    TITLE "Jibaro"
    PERFORMER "Electra"
    REM COMPOSER ""
    INDEX 01 00:00:00
FILE "03 - It's Immaterial - Driving Away From Home (Wicked Weather For Walking).wav" WAVE
  TRACK 03 AUDIO
    TITLE "Driving Away From Home (Wicked Weather For Walking)"
    PERFORMER "It's Immaterial"
    REM COMPOSER ""
    INDEX 01 00:00:00
FILE "04 - Simple Minds - Theme For Great Cities.wav" WAVE
  TRACK 04 AUDIO
    TITLE "Theme For Great Cities"
    PERFORMER "Simple Minds"
    REM COMPOSER ""
    INDEX 01 00:00:00
FILE "05 - The Beloved - The Sun Rising (Deeply Satisfying Mix).wav" WAVE
  TRACK 05 AUDIO
    TITLE "The Sun Rising (Deeply Satisfying Mix)"
    PERFORMER "The Beloved"
    REM COMPOSER ""
    INDEX 01 00:00:00
FILE "06 - Orbital - Belfast.wav" WAVE
  TRACK 06 AUDIO
    TITLE "Belfast"
    PERFORMER "Orbital"
    REM COMPOSER ""
    INDEX 01 00:00:00
FILE "07 - Leftfield - Release The Pressure (The Desert Edit).wav" WAVE
  TRACK 07 AUDIO
    TITLE "Release The Pressure (The Desert Edit)"
    PERFORMER "Leftfield"
    REM COMPOSER ""
    INDEX 01 00:00:00
FILE "08 - The Grid - Floatation.wav" WAVE
  TRACK 08 AUDIO
    TITLE "Floatation"
    PERFORMER "The Grid"
    REM COMPOSER ""
    INDEX 01 00:00:00
FILE "09 - Saint Etienne - Only Love Can Break Your Heart (Andrew Weatherall Remix).wav" WAVE
  TRACK 09 AUDIO
    TITLE "Only Love Can Break Your Heart (Andrew Weatherall Remix)"
    PERFORMER "Saint Etienne"
    REM COMPOSER ""
    INDEX 01 00:00:00
FILE "10 - Carly Simon - Why (Radio Edit).wav" WAVE
  TRACK 10 AUDIO
    TITLE "Why (Radio Edit)"
    PERFORMER "Carly Simon"
    REM COMPOSER ""
    INDEX 01 00:00:00
FILE "11 - Happy Mondays - Hallelujah (Club Mix).wav" WAVE
  TRACK 11 AUDIO
    TITLE "Hallelujah (Club Mix)"
    PERFORMER "Happy Mondays"
    REM COMPOSER ""
    INDEX 01 00:00:00
FILE "12 - William Pitt - City Lights.wav" WAVE
  TRACK 12 AUDIO
    TITLE "City Lights"
    PERFORMER "William Pitt"
    REM COMPOSER ""
    INDEX 01 00:00:00
FILE "13 - Cyndi Lauper - What's Going On (Club Version).wav" WAVE
  TRACK 13 AUDIO
    TITLE "What's Going On (Club Version)"
    PERFORMER "Cyndi Lauper"
    REM COMPOSER ""
    INDEX 01 00:00:00
FILE "14 - Thrashing Doves - Jesus On The Payroll (Street Groove).wav" WAVE
  TRACK 14 AUDIO
    TITLE "Jesus On The Payroll (Street Groove)"
    PERFORMER "Thrashing Doves"
    REM COMPOSER ""
    INDEX 01 00:00:00
FILE "15 - Izit - Stories (I've A Novella Mix).wav" WAVE
  TRACK 15 AUDIO
    TITLE "Stories (I've A Novella Mix)"
    PERFORMER "Izit"
    REM COMPOSER ""
    INDEX 01 00:00:00
FILE "16 - The Cure - Lullaby (Extended Mix).wav" WAVE
  TRACK 16 AUDIO
    TITLE "Lullaby (Extended Mix)"
    PERFORMER "The Cure"
    REM COMPOSER ""
    INDEX 01 00:00:00
FILE "17 - Red Box - Enjoy (Solid Gold Easy Amex).wav" WAVE
  TRACK 17 AUDIO
    TITLE "Enjoy (Solid Gold Easy Amex)"
    PERFORMER "Red Box"
    REM COMPOSER ""
    INDEX 01 00:00:00
FILE "18 - The Stone Roses - Waterfall (12'' Mix).wav" WAVE
  TRACK 18 AUDIO
    TITLE "Waterfall (12' Mix)"
    PERFORMER "The Stone Roses"
    REM COMPOSER ""
    INDEX 01 00:00:00
FILE "19 - The Woodentops - Why Why Why.wav" WAVE
  TRACK 19 AUDIO
    TITLE "Why Why Why"
    PERFORMER "The Woodentops"
    REM COMPOSER ""
    INDEX 01 00:00:00

Этот торрент недоступен для скачивания без регистрации, однако доступен по публичной magnet-ссылке (источники с публичных трекеров). Перед использованием ссылки прочтите, пожалуйста Пользовательское соглашение, а также как можно дольше оставайтесь на раздаче! Для того, чтобы скачать сам торрент-файл (который видит больше источников), а также для того, чтобы поблагодарить релизера, вам необходимо зарегистрироваться. Если регистрироваться лень - вы можете также попробовать скачать релиз по нашим партнерским ссылкам ниже. Кроме того, зарегистрированным пользователям не показывается всплывающая реклама при скачивании.

[underverse.me].t88986.torrent
Трекер: Зарегистрирован   [ 18.09.2017 10:12 ]  
Статус: проверено (by Darkferse at 18.09.2017 10:13)
Поблагодарили: 2 человека
Тип торрента: публичный - доступные источники с открытых трекеров: 
Размер: 1.6 GB (занимает 0.37 DVDR, для записи нужно 1 болванка DVDR/RW)
 
 

Яндекс.Метрика powered by Sphinx


В Н И М А Н И Е
Сайт не распространяет и не хранит электронные версии произведений, а лишь бесплатно и без коммерческой выгоды (не требуя взамен платы,
SMS и т.д.) предоставляет доступ к создаваемому пользователями каталогу ссылок на торрент-файлы, которые содержат только списки хеш-сумм.
Убедительная просьба с жалобами обращаться напрямую к пользователю, разместившему торрент файл.

Вверх