Loading...
Error

Проект "Гризли" / Project Grizzly (1-6 серий из 6) [2016 г., документальный, фауна, наблюдение, HDTVRip] VO

Статистика раздачи
Размер:  3.2 GB   |    Зарегистрирован:  5 лет   |    Скачан:  2 раза

Полного источника не было: 1 год 1 месяц

Сидов:  0  |  0 KB/s  ]   Личеров:  0  |  0 KB/s  ]

* - сиды/пиры с внешних источников

   
 
Автор Сообщение

ARI71 Пол:Муж

20-Сен-2017 08:47

Проект "Гризли" / Project Grizzly (1-6 серий из 6)


Год выпуска: 2016
Жанр: документальный, фауна, наблюдение
Страна: США Discovery Communications, LLC.
Сюжет фильма:
Джефф Уотсон по прозвищу Человек-медведь уже 27 лет ухаживает за медведями в неволе, и все эти годы он мечтает о возвращении величественных животных в дикую природу. Сегодня Джефф пытается обучить навыкам выживания двух взрослых бурых медведей по кличке Боб и Скрич, выросших в неволе, чтобы выпустить их на свободу в глубинке на юге штата Индиана. Ему предстоит провести несколько месяцев в безлюдных лесах наедине с трехсоткилограммовыми гризли, учить их находить пропитание, охотиться, ловить рыбу и защищать себя. Джефф готов проститься с друзьями и семьей и подвергнуть себя риску, чтобы осуществить свою давнюю мечту: вернуть медведей в их естественную среду обитания.

Качество видео: HDTVRip

Продолжительность: 6 x ~00:44:00
Формат: AVI
Видео: XviD, 720x400, 1542 kbps
Аудио: русский, одноголосый [профессиональный], AC3 2.0, 192 kbps

Код:

Общее
Полное имя : D:\Проект Гризли GeneralFilm\01 Проект Гризли.avi
Формат : AVI
Формат/Информация : Audio Video Interleave
Размер файла : 547 Мбайт
Продолжительность : 43 м.
Общий поток : 1744 Кбит/сек
Программа кодирования : VirtualDubMod 1.5.10.3 | www.virtualdub-fr.org || (build 2550/release)
Библиотека кодирования : VirtualDubMod build 2550/release

Видео
Идентификатор : 0
Формат : MPEG-4 Visual
Профиль формата : Advanced [email protected]
Параметр BVOP формата : 1
Параметр QPel формата : Нет
Параметр GMC формата : Без точки перехода
Параметр матрицы формата : Выборочная
Идентификатор кодека : XVID
Идентификатор кодека/Подсказка : XviD
Продолжительность : 43 м.
Битрейт : 1542 Кбит/сек
Ширина : 720 пикселей
Высота : 400 пикселей
Соотношение сторон : 16:9
Частота кадров : 25,000 кадров/сек
Цветовое пространство : YUV
Субдискретизация насыщенности : 4:2:0
Битовая глубина : 8 бит
Тип развёртки : Прогрессивная
Метод сжатия : С потерями
Бит/(Пиксели*Кадры) : 0.214
Размер потока : 484 Мбайт (88%)
Библиотека кодирования : XviD 73

Аудио
Идентификатор : 1
Формат : AC-3
Формат/Информация : Audio Coding 3
Расширение режима : CM (complete main)
Параметр Endianness формата : Big
Идентификатор кодека : 2000
Продолжительность : 43 м.
Вид битрейта : Постоянный
Битрейт : 192 Кбит/сек
Каналы : 2 канала
Расположение каналов : Front: L R
Частота : 48,0 КГц
Частота кадров : 31,250 кадров/сек (1536 spf)
Метод сжатия : С потерями
Размер потока : 60,3 Мбайт (11%)
Выравнивание : Разделение по промежуткам
Продолжительность промежутка : 40 мс. (1,00 видеокадр)
Время предзагрузки промежутка : 500 мс.
picpicpicpicpic
Для увеличения картинки щелкните мышкой по превью

Этот торрент недоступен для скачивания без регистрации, однако доступен по публичной magnet-ссылке (источники с публичных трекеров). Перед использованием ссылки прочтите, пожалуйста Пользовательское соглашение, а также как можно дольше оставайтесь на раздаче! Для того, чтобы скачать сам торрент-файл (который видит больше источников), а также для того, чтобы поблагодарить релизера, вам необходимо зарегистрироваться. Если регистрироваться лень - вы можете также попробовать скачать релиз по нашим партнерским ссылкам ниже. Кроме того, зарегистрированным пользователям не показывается всплывающая реклама при скачивании.

[underverse.me].t89064.torrent
Трекер: Зарегистрирован   [ 20.09.2017 08:47 ]  
Статус: проверено (by ARI71 at 20.09.2017 08:48)
Поблагодарили: пока никто не поблагодарил...
Тип торрента: публичный - доступные источники с открытых трекеров: 
Размер: 3.2 GB (занимает 0.73 DVDR, для записи нужно 1 болванка DVDR/RW)
 
 

Яндекс.Метрика powered by Sphinx


В Н И М А Н И Е
Сайт не распространяет и не хранит электронные версии произведений, а лишь бесплатно и без коммерческой выгоды (не требуя взамен платы,
SMS и т.д.) предоставляет доступ к создаваемому пользователями каталогу ссылок на торрент-файлы, которые содержат только списки хеш-сумм.
Убедительная просьба с жалобами обращаться напрямую к пользователю, разместившему торрент файл.

Вверх