Loading...
Error

Адская кошка / My Cat From Hell (8 сезон: 1-12 серии из 12) [2017 г., документальный, кошки, домашние питомцы, HDTVRip] DVO

Статистика раздачи
Размер:  6.49 GB   |    Зарегистрирован:  4 года 10 месяцев   |    Скачан:  4 раза

Полного источника не было: 1 год 11 месяцев

Сидов:  0  |  0 KB/s  ]   Личеров:  0  |  0 KB/s  ]

* - сиды/пиры с внешних источников

   
 
Автор Сообщение

ARI71 Пол:Муж

24-Сен-2017 10:35

Адская кошка / My Cat From Hell (8 сезон: 1-12 серии из 12)


Год выпуска: 2017
Жанр: документальный, кошки, домашние питомцы
Страна: США Discovery Communications, LLC.
Сюжет фильма:
Неуправляемые и непредсказуемые кошки продолжают безобразничать, но, как и прежде, на помощь спешит специалист по кошачьему поведению Джексон Гэлакси. Он учит владельцев лучше понимать своих питомцев и исправлять их плохое поведение. В ближайших сериях Джексону предстоит познакомиться со Скаут, которая настолько боится своей «боевой подруги» по кличке Карамель, что отсиживается в кухонном шкафу. Также он встретится с взятой из приюта бенгальской кошкой Чито, которая прекрасно умеет пользоваться туалетом, но не может обуздать инстинкт джунглей, и потому нещадно царапает свою хозяйку. А еще Джексона ждет встреча с Кёртисом и его котом по кличке Кёртис-младший. И его повадки нужно срочно исправить, иначе хозяин удалит ему когти. Сможет ли «кошачий папа» помочь своенравным питомцам устранить проблемы в поведении, с которыми не могут справиться их хозяева?

Качество видео: HDTVRip

Продолжительность: 12 x ~00:44:00
Формат: AVI
Видео: XviD, 720x400, 1543 kbps
Аудио: русский, двухголосый закадровый [профессиональный], AC3 2.0, 192 kbps

Релиз от: Starik60

Код:

Общее
Полное имя : D:\Адская кошка s08 HitWay\01 Адская кошка HitWay.avi
Формат : AVI
Формат/Информация : Audio Video Interleave
Размер файла : 545 Мбайт
Продолжительность : 43 м.
Общий поток : 1745 Кбит/сек
Программа кодирования : VirtualDubMod 1.5.10.3 | www.virtualdub-fr.org || (build 2550/release)
Библиотека кодирования : VirtualDubMod build 2550/release

Видео
Идентификатор : 0
Формат : MPEG-4 Visual
Профиль формата : Advanced [email protected]
Параметр BVOP формата : 1
Параметр QPel формата : Нет
Параметр GMC формата : Без точки перехода
Параметр матрицы формата : Выборочная
Идентификатор кодека : XVID
Идентификатор кодека/Подсказка : XviD
Продолжительность : 43 м.
Битрейт : 1543 Кбит/сек
Ширина : 720 пикселей
Высота : 400 пикселей
Соотношение сторон : 16:9
Частота кадров : 25,000 кадров/сек
Цветовое пространство : YUV
Субдискретизация насыщенности : 4:2:0
Битовая глубина : 8 бит
Тип развёртки : Прогрессивная
Метод сжатия : С потерями
Бит/(Пиксели*Кадры) : 0.214
Размер потока : 482 Мбайт (88%)
Библиотека кодирования : XviD 73

Аудио
Идентификатор : 1
Формат : AC-3
Формат/Информация : Audio Coding 3
Расширение режима : CM (complete main)
Параметр Endianness формата : Big
Идентификатор кодека : 2000
Продолжительность : 43 м.
Вид битрейта : Постоянный
Битрейт : 192 Кбит/сек
Каналы : 2 канала
Расположение каналов : Front: L R
Частота : 48,0 КГц
Частота кадров : 31,250 кадров/сек (1536 spf)
Метод сжатия : С потерями
Размер потока : 60,0 Мбайт (11%)
Выравнивание : Разделение по промежуткам
Продолжительность промежутка : 40 мс. (1,00 видеокадр)
Время предзагрузки промежутка : 500 мс.
picpicpicpicpic
Для увеличения картинки щелкните мышкой по превью

Этот торрент недоступен для скачивания без регистрации, однако доступен по публичной magnet-ссылке (источники с публичных трекеров). Перед использованием ссылки прочтите, пожалуйста Пользовательское соглашение, а также как можно дольше оставайтесь на раздаче! Для того, чтобы скачать сам торрент-файл (который видит больше источников), а также для того, чтобы поблагодарить релизера, вам необходимо зарегистрироваться. Если регистрироваться лень - вы можете также попробовать скачать релиз по нашим партнерским ссылкам ниже. Кроме того, зарегистрированным пользователям не показывается всплывающая реклама при скачивании.

[underverse.me].t91619.torrent
Трекер: Зарегистрирован   [ 18.11.2017 21:43 ]  
Статус: проверено (by ARI71 at 18.11.2017 21:43)
Поблагодарили: 1 человек
Тип торрента: публичный - доступные источники с открытых трекеров: 
Размер: 6.49 GB (занимает 1.48 DVDR, для записи нужно 2 болванки DVDR/RW)
 
 


Последний раз редактировалось: ARI71 (18.11.2017 21:42), всего редактировалось 8 раз(а)

ARI71 Пол:Муж

02-Окт-2017 07:48

Добавлена заключительная 12-я серия!
    Сериал завершён!

Яндекс.Метрика powered by Sphinx


В Н И М А Н И Е
Сайт не распространяет и не хранит электронные версии произведений, а лишь бесплатно и без коммерческой выгоды (не требуя взамен платы,
SMS и т.д.) предоставляет доступ к создаваемому пользователями каталогу ссылок на торрент-файлы, которые содержат только списки хеш-сумм.
Убедительная просьба с жалобами обращаться напрямую к пользователю, разместившему торрент файл.

Вверх