Loading...
Error

Как устроена Вселенная / How the Universe Works (5 сезон: 8 серий из 9) / (Ник Дж. Миллер, Лиза Мерфи Райлли) [2016-2017 г., документальный, научно-познавательный, астрономия, космос, HDTVRip] VO (Кириллица)

Статистика раздачи
Размер:  4.78 GB   |    Зарегистрирован:  4 года 10 месяцев   |    Скачан:  27 раз

Полного источника не было: 2 месяца 9 дней

Сидов:  0  |  0 KB/s  ]   Личеров:  0  |  0 KB/s  ]

* - сиды/пиры с внешних источников

   
 
Автор Сообщение

ARI71 Пол:Муж

29-Окт-2017 10:49

Как устроена Вселенная / How the Universe Works (5 сезон: 8 серий из 9)


Год выпуска: 2016-2017
Жанр: документальный, научно-познавательный, астрономия, космос
Страна: США Pioneer Productions, Discovery Channel
Режиссер: Ник Дж. Миллер, Лиза Мерфи Райлли
В ролях: Фил Плейт, Мишель Таллер, Лоуренс Краусс, Джефф Марси, Дэвид Гринспун, Алекс Филиппенко, Карлос Френк...
Сюжет фильма:
Ошеломляющий и уникальный проект, канала "Discovery" — представляет вашему вниманию передачу «Как устроена Вселенная». Она расскажет вам теорию о том как образовалась Вселенная, галактики, солнечные системы, планеты, звезды и т. д. Это величайшая история о том, как из маленькой точки появилась целая Вселенная, а потом начали появляться звезды, планеты и, конечно же, наша Земля. На самом деле, если сравнивать появление нашей планеты с историей вселенной, окажется, что мы лишь мельчайшая частица во всем этом круговороте событий! Ведь мы даже не знаем все процессы нашей галактики, а есть ещё миллиарды других, незнакомых нам галактик. Сейчас мы живем в «золотом веке астрономических открытий». Ведь именно сейчас с развитием технологий, применяемых в телескопах и спутниках, ученые открывают то, что буквально 50 лет назад казалось абсурдным. И не смотря на это остается ещё масса вопросов, на которые пока нет ответа. В действительности тема космоса одна из наиболее интересных тем. В данном сериале вы получите ответы на многие вопросы, известнейшие учены и астрономы поделятся с вами секретами! Вы узнаете о том, как зародилась наша Вселенная, о том, как появились первые планеты, вы познаете тайны нашей Солнечной системы, а также окунётесь в потрясающий мир других планет! Чем дальше продвигаются астрономы в своих знаниях, тем интереснее становится следить за всем тем, что происходит в космосе. Давайте посмотрим этот удивительный проект и окунемся в мир неизвестности и загадочности! Приятного просмотра, уважаемые зрители!

Качество видео: HDTVRip

Продолжительность: 8 х ~00:45:00
Формат: AVI
Видео: XviD, 720x400, 1898 kbps
Аудио: русский, одноголосый [профессиональный, Кириллица], AC3 2.0, 192 kbps

Автор рипа и постера: RockeT

Код:

Общее
Полное имя : D:\How the Universe Works_s05.HDTVRip [Kaztorrents]\02_Mystery of Planet.HDTVRip [Kaztorrents].avi
Формат : AVI
Формат/Информация : Audio Video Interleave
Размер файла : 604 Мбайт
Продолжительность : 40 м.
Общий поток : 2102 Кбит/сек
Программа кодирования : VirtualDubMod 1.5.10.2 (build 2542/release)
Библиотека кодирования : VirtualDubMod build 2542/release

Видео
Идентификатор : 0
Формат : MPEG-4 Visual
Профиль формата : Advanced [email protected]
Параметр BVOP формата : 1
Параметр QPel формата : Нет
Параметр GMC формата : Без точки перехода
Параметр матрицы формата : Default (MPEG)
Идентификатор кодека : XVID
Идентификатор кодека/Подсказка : XviD
Продолжительность : 40 м.
Битрейт : 1898 Кбит/сек
Ширина : 720 пикселей
Высота : 400 пикселей
Соотношение сторон : 16:9
Частота кадров : 29,970 кадров/сек
Частота кадров в оригинале : 30,000 кадров/сек
Цветовое пространство : YUV
Субдискретизация насыщенности : 4:2:0
Битовая глубина : 8 бит
Тип развёртки : Прогрессивная
Метод сжатия : С потерями
Бит/(Пиксели*Кадры) : 0.220
Размер потока : 545 Мбайт (90%)
Библиотека кодирования : XviD 65

Аудио
Идентификатор : 1
Формат : AC-3
Формат/Информация : Audio Coding 3
Расширение режима : CM (complete main)
Параметр Endianness формата : Big
Идентификатор кодека : 2000
Продолжительность : 40 м.
Вид битрейта : Постоянный
Битрейт : 192 Кбит/сек
Каналы : 2 канала
Расположение каналов : Front: L R
Частота : 48,0 КГц
Частота кадров : 31,250 кадров/сек (1536 spf)
Метод сжатия : С потерями
Размер потока : 55,1 Мбайт (9%)
Выравнивание : Разделение по промежуткам
Продолжительность промежутка : 33 мс. (1,00 видеокадр)
Время предзагрузки промежутка : 500 мс.
01. Most Amazing Discoveries
02. Тайна девятой планеты / Mystery of Planet 9
03. Тайна происхождения черных дыр / Black Holes: The Secret Origin
04. Тайная история Плутона / Secret History of Pluto
05. Звезды, которые убивают / Stars That Kill
06. Гиблые места во Вселенной / The Universe's Deadliest
07. Жизнь и смерть на Красной планете / Life and Death on the Red Planet
08. Загадка темной материи / The Dark Matter Enigma
09. Самые необычные планеты / Strangest Alien Worlds
picpicpicpicpic
Для увеличения картинки щелкните мышкой по превью

Этот торрент недоступен для скачивания без регистрации, однако доступен по публичной magnet-ссылке (источники с публичных трекеров). Перед использованием ссылки прочтите, пожалуйста Пользовательское соглашение, а также как можно дольше оставайтесь на раздаче! Для того, чтобы скачать сам торрент-файл (который видит больше источников), а также для того, чтобы поблагодарить релизера, вам необходимо зарегистрироваться. Если регистрироваться лень - вы можете также попробовать скачать релиз по нашим партнерским ссылкам ниже. Кроме того, зарегистрированным пользователям не показывается всплывающая реклама при скачивании.

[underverse.me].t91994.torrent
Трекер: Зарегистрирован   [ 25.11.2017 18:50 ]  
Статус: проверено (by ARI71 at 19.06.2018 11:47)
Поблагодарили: пока никто не поблагодарил...
Тип торрента: публичный - доступные источники с открытых трекеров: 
Размер: 4.78 GB (занимает 1.09 DVDR, для записи нужно 2 болванки DVDR/RW)
 
 


Последний раз редактировалось: ARI71 (25.11.2017 18:49), всего редактировалось 4 раз(а)

ARI71 Пол:Муж

06-Ноя-2017 09:34

Добавлена новая серия: 05. Звезды, которые убивают / Stars That Kill


Последний раз редактировалось: ARI71 (25.11.2017 18:47), всего редактировалось 2 раз(а)

oleg2013-201Пол:Муж

15-Ноя-2017 10:26

Спасибо! Посмотрим.

Яндекс.Метрика powered by Sphinx


В Н И М А Н И Е
Сайт не распространяет и не хранит электронные версии произведений, а лишь бесплатно и без коммерческой выгоды (не требуя взамен платы,
SMS и т.д.) предоставляет доступ к создаваемому пользователями каталогу ссылок на торрент-файлы, которые содержат только списки хеш-сумм.
Убедительная просьба с жалобами обращаться напрямую к пользователю, разместившему торрент файл.

Вверх