Loading...
Error

Через червоточину с Морганом Фрименом / Through The Wormhole with Morgan Freeman (8 сезон: 4 серии из 4) / (Курт Сайенга) [2017 г., документальный, научно-познавательный, исследования, гипотезы, HDTVRip] DVO

Статистика раздачи
Размер:  2.48 GB   |    Зарегистрирован:  4 года 11 месяцев   |    Скачан:  17 раз

Полного источника не было: 3 месяца 24 дня

Сидов:  0  |  0 KB/s  ]   Личеров:  0  |  0 KB/s  ]

* - сиды/пиры с внешних источников

   
 
Автор Сообщение

ARI71 Пол:Муж

03-Ноя-2017 06:54

Через червоточину с Морганом Фрименом / Through The Wormhole with Morgan Freeman (8 сезон: 4 серии из 4)


Год выпуска: 2017
Жанр: документальный, научно-познавательный, исследования, гипотезы
Страна: США The Incubator, Revelations Entertainment, Discovery Communications, Science Channel
Режиссер: Курт Сайенга
Ведущий: Морган Фримен
Сюжет фильма:
"Discovery Channel" и Морган Фримен снова ведут зрителей за собой на поиски ответов на вопросы, которыми испокон веков интересуется человечество. Морган Фримен выбирает самые масштабные, самые спорные, самые глобальные вопросы – перед ними сдается большинство ученых и философов, и вряд ли решение появится в обозримом будущем. Но в этом и заключается изюминка – поиск ответов на них всегда таит в себе удивительные открытия и неожиданные озарения. Например, алхимики долго искали способы получения золота из других металлов – так и не добившись своего, они, тем не менее, заметно продвинули химию вперед, что стало гораздо более ценным даром для цивилизации. Так что даже если цель далека и не видна за горизонтом, важно просто двигаться к ней: отправляйтесь в путь на поиски научных чудес вместе с Морганом Фрименом и Discovery Channel! Что готовит нам финальный сезон сериала "Через червоточину с Морганом Фрименом".

Качество видео: HDTVRip

Продолжительность: 4 х ~00:43:00
Формат: AVI
Видео: XviD, 720x400, 1900 kbps
Аудио: русский, двухголосый [профессиональный], AC3 2.0, 192 kbps

Рип от: DarknesS93

Код:

Общее
Полное имя : D:\Through the Wormhole_S08.HDTVRip [Kaztorrents]\01_Is the Force With Us.HDTVRip [Kaztorrents].avi
Формат : AVI
Формат/Информация : Audio Video Interleave
Размер файла : 635 Мбайт
Продолжительность : 42 м.
Общий поток : 2101 Кбит/сек
Программа кодирования : VirtualDubMod 1.5.10.3 | www.virtualdub-fr.org || (build 2550/release)
Библиотека кодирования : VirtualDubMod build 2550/release

Видео
Идентификатор : 0
Формат : MPEG-4 Visual
Профиль формата : Advanced [email protected]
Параметр BVOP формата : 1
Параметр QPel формата : Нет
Параметр GMC формата : Без точки перехода
Параметр матрицы формата : Default (MPEG)
Идентификатор кодека : XVID
Идентификатор кодека/Подсказка : XviD
Продолжительность : 42 м.
Битрейт : 1900 Кбит/сек
Ширина : 720 пикселей
Высота : 400 пикселей
Соотношение сторон : 16:9
Частота кадров : 25,000 кадров/сек
Цветовое пространство : YUV
Субдискретизация насыщенности : 4:2:0
Битовая глубина : 8 бит
Тип развёртки : Прогрессивная
Метод сжатия : С потерями
Бит/(Пиксели*Кадры) : 0.264
Размер потока : 574 Мбайт (90%)
Библиотека кодирования : XviD 65

Аудио
Идентификатор : 1
Формат : AC-3
Формат/Информация : Audio Coding 3
Расширение режима : CM (complete main)
Параметр Endianness формата : Big
Идентификатор кодека : 2000
Продолжительность : 42 м.
Вид битрейта : Постоянный
Битрейт : 192 Кбит/сек
Каналы : 2 канала
Расположение каналов : Front: L R
Частота : 48,0 КГц
Частота кадров : 31,250 кадров/сек (1536 spf)
Метод сжатия : С потерями
Размер потока : 58,0 Мбайт (9%)
Выравнивание : Разделение по промежуткам
Продолжительность промежутка : 40 мс. (1,00 видеокадр)
Время предзагрузки промежутка : 500 мс.
01. Пребудет ли с нами Сила? / Is the Force With Us?
02. Можно ли обмануть смерть / Can We Cheat Death?
03. Можно ли взломать планету? / Can We Hack the Planet?
04. Вооруженные преступления - вирус или нет? / Is Gun Crime a Virus?
picpicpicpic
Для увеличения картинки щелкните мышкой по превью

Этот торрент недоступен для скачивания без регистрации, однако доступен по публичной magnet-ссылке (источники с публичных трекеров). Перед использованием ссылки прочтите, пожалуйста Пользовательское соглашение, а также как можно дольше оставайтесь на раздаче! Для того, чтобы скачать сам торрент-файл (который видит больше источников), а также для того, чтобы поблагодарить релизера, вам необходимо зарегистрироваться. Если регистрироваться лень - вы можете также попробовать скачать релиз по нашим партнерским ссылкам ниже. Кроме того, зарегистрированным пользователям не показывается всплывающая реклама при скачивании.

[underverse.me].t91041.torrent
Трекер: Зарегистрирован   [ 03.11.2017 06:54 ]  
Статус: проверено (by ARI71 at 03.11.2017 06:55)
Поблагодарили: пока никто не поблагодарил...
Тип торрента: публичный - доступные источники с открытых трекеров: 
Размер: 2.48 GB (занимает 0.57 DVDR, для записи нужно 1 болванка DVDR/RW)
 
 

Яндекс.Метрика powered by Sphinx


В Н И М А Н И Е
Сайт не распространяет и не хранит электронные версии произведений, а лишь бесплатно и без коммерческой выгоды (не требуя взамен платы,
SMS и т.д.) предоставляет доступ к создаваемому пользователями каталогу ссылок на торрент-файлы, которые содержат только списки хеш-сумм.
Убедительная просьба с жалобами обращаться напрямую к пользователю, разместившему торрент файл.

Вверх