Loading...
Error

Столпы Америки / American Titans (1 сезон: 6 серии из 6) / (Кэти Кеннеди) [2015 г., документальный, драма, игровой, биография, история, DVB] VO + Original (Eng)

Статистика раздачи
Размер:  5.59 GB   |    Зарегистрирован:  4 года 9 месяцев   |    Скачан:  6 раз

Полного источника не было: 1 год

Сидов:  0  |  0 KB/s  ]   Личеров:  0  |  0 KB/s  ]

* - сиды/пиры с внешних источников

   
 
Автор Сообщение

ARI71 Пол:Муж

16-Ноя-2017 16:13

Столпы Америки / American Titans (1 сезон: 6 серии из 6)


Год выпуска: 2015
Жанр: документальный, драма, игровой, биография, история
Страна: США Discovery and Tall Story Productions for AHC
Режиссер: Кэти Кеннеди
Сюжет фильма:
Сериал "Титаны Америки" рассказывает малоизвестные истории о людях, которые сделали Америку такой, какой она является сегодня, как они сумели достигнуть непостижимого богатства: Рокфеллер, Карнеги, Форд, Эдисон, Стэнфорд и Херст. Их свирепый нрав, новаторство и часто безрассудство привели их к вершине богатого и мощного списка. Программа посвящена этим выдающимся американцам. Эти люди совершили открытия, которые изменили жизнь людей и подарили человечеству технический прогресс.

Качество видео: DVB

Продолжительность: 6 х ~00:44:00
Формат: TS
Видео: MPEG 2, 720х[email protected], 2627 kbps
Аудио #1: русский, одноголосый [профессиональный], MP2 2.0, 192 kbps
Аудио #2: английский, оригинал, MP2 2.0, 192 kbps

Доп. информация: Размер кадра анаморфный - (1024x576)

Автор рипа и постера: skorpionN

Код:

Общее
Идентификатор : 1 (0x1)
Полное имя : D:\American Titans\01_Carnegie vs Frick.ts
Формат : MPEG-TS
Размер файла : 998 Мбайт
Продолжительность : 44 м. 0 с.
Режим общего битрейта : Переменный
Общий поток : 3171 Кбит/сек

Видео
Идентификатор : 210 (0xD2)
Идентификатор меню : 1110 (0x456)
Формат : MPEG Video
Версия формата : Version 2
Профиль формата : [email protected]
Настройки формата : CustomMatrix / BVOP
Параметр BVOP формата : Да
Параметр матрицы формата : Выборочная
Параметр GOP формата : M=3, N=15
Структура изображения : Frame
Идентификатор кодека : 2
Продолжительность : 44 м. 0 с.
Вид битрейта : Переменный
Битрейт : 2627 Кбит/сек
Максимальный битрейт : 9800 Кбит/сек
Ширина : 720 пикселей
Высота : 576 пикселей
Соотношение сторон : 16:9
Частота кадров : 25,000 кадров/сек
Стандарт вещания : PAL
Цветовое пространство : YUV
Субдискретизация насыщенности : 4:2:0
Битовая глубина : 8 бит
Тип развёртки : Чересстрочная
Порядок развёртки : Верхнее поле первое
Метод сжатия : С потерями
Бит/(Пиксели*Кадры) : 0.253
Временной код первого кадра : 00:00:00:00
Оригинал временного кода : Group of pictures header
GOP, открыто/закрыто : Открыто
GOP, открыто/закрыто на первом кадре : Закрыто
Размер потока : 827 Мбайт (83%)

Аудио #1
Идентификатор : 310 (0x136)
Идентификатор меню : 1110 (0x456)
Формат : MPEG Audio
Версия формата : Version 1
Профиль формата : Layer 2
Идентификатор кодека : 3
Продолжительность : 44 м. 0 с.
Вид битрейта : Постоянный
Битрейт : 192 Кбит/сек
Каналы : 2 канала
Частота : 48,0 КГц
Частота кадров : 41,667 кадра/сек (1152 SPF)
Метод сжатия : С потерями
Размер потока : 60,4 Мбайт (6%)
Язык : Russian

Аудио #2
Идентификатор : 311 (0x137)
Идентификатор меню : 1110 (0x456)
Формат : MPEG Audio
Версия формата : Version 1
Профиль формата : Layer 2
Идентификатор кодека : 3
Продолжительность : 44 м. 0 с.
Вид битрейта : Постоянный
Битрейт : 192 Кбит/сек
Каналы : 2 канала
Частота : 48,0 КГц
Частота кадров : 41,667 кадра/сек (1152 SPF)
Метод сжатия : С потерями
Размер потока : 60,4 Мбайт (6%)
Язык : English
01. Карнеги и Фрик / Carnegie vs. Frick
Основатель стальной империи Эндрю Карнеги и угольный король Генри Клэй Фрик объединяют силы, чтобы создать самую мощную индустриальную империю "позолоченного века" Америки.

02. Рокфеллер и Скотт / Rockefeller vs. Scott
Нефтяной магнат Джон Дэвисон Рокфеллер и Томас Скотт, глава местного отделения Пенсильванской железной дороги, начинают борьбу за контроль над новой, нефтяной отраслью Америки.

03. Эдисон и Тесла / Edison vs. Tesla
В конце XIX века два великих ума, Томас Эдисон и Никола Тесла, совершили открытия, которые изменили жизнь людей и подарили человечеству электрическое освещение и переменный ток.

04. Вандербильт и Дрю / Vanderbilt vs. Drew
Железнодорожный магнат Корнелиус Вандербильт и его старый друг Дэниел Дрю борются за проект строительства железной дороги между Нью-Йорком и озером Эри.

05. Херст и Пулитцер / Hearst vs. Pulitzer
В конце 1890-х годов Уильям Рэндольф Херст бросил вызов газетному магнату Джозефу Пулитцеру в войне за тиражи, которая навсегда изменила издательский бизнес.

06. Дейли и Кларк / Daly vs. Clark
Маркус Дейли и Уильям А. Кларк сражались за контроль над меднодобывающей промышленностью в Монтане в конце 19 века.
Рассказ о родоначальниках списка "Fortune 500", которым было суждено привести Америку через индустриальную революцию к "позолоченному веку".
picpicpicpicpic
Для увеличения картинки щелкните мышкой по превью

Этот торрент недоступен для скачивания без регистрации, однако доступен по публичной magnet-ссылке (источники с публичных трекеров). Перед использованием ссылки прочтите, пожалуйста Пользовательское соглашение, а также как можно дольше оставайтесь на раздаче! Для того, чтобы скачать сам торрент-файл (который видит больше источников), а также для того, чтобы поблагодарить релизера, вам необходимо зарегистрироваться. Если регистрироваться лень - вы можете также попробовать скачать релиз по нашим партнерским ссылкам ниже. Кроме того, зарегистрированным пользователям не показывается всплывающая реклама при скачивании.

[underverse.me].t93079.torrent
Трекер: Зарегистрирован   [ 16.12.2017 23:16 ]  
Статус: проверено (by ARI71 at 16.12.2017 23:17)
Поблагодарили: пока никто не поблагодарил...
Тип торрента: публичный - доступные источники с открытых трекеров: 
Размер: 5.59 GB (занимает 1.28 DVDR, для записи нужно 2 болванки DVDR/RW)
 
 


Последний раз редактировалось: ARI71 (16.12.2017 23:16), всего редактировалось 5 раз(а)

ARI71 Пол:Муж

22-Ноя-2017 22:52

Добавлена заключительная серия: 06. Дейли и Кларк / Daly vs. Clark
    1-й сезон сериала, завершён!

[email protected]lv Пол:Муж

23-Дек-2017 21:14

Восхволящй фильм самих безсовестных воров и губителей нашей планеты и ее народов !!!

Яндекс.Метрика powered by Sphinx


В Н И М А Н И Е
Сайт не распространяет и не хранит электронные версии произведений, а лишь бесплатно и без коммерческой выгоды (не требуя взамен платы,
SMS и т.д.) предоставляет доступ к создаваемому пользователями каталогу ссылок на торрент-файлы, которые содержат только списки хеш-сумм.
Убедительная просьба с жалобами обращаться напрямую к пользователю, разместившему торрент файл.

Вверх