Loading...
Error

Ворон / The Crow (Алекс Пройас / Alex Proyas) [1994 г., фэнтези, боевик, триллер, BDRip-AVC] MVO (R5) + Original (Eng) + Sub (Rus, Eng) Ripodelnia

Статистика раздачи
Размер:  2.19 GB   |    Зарегистрирован:  4 года 6 месяцев   |    Скачан:  6 раз

Полного источника не было: 3 месяца 9 дней

Сидов:  0  |  0 KB/s  ]   Личеров:  0  |  0 KB/s  ]

* - сиды/пиры с внешних источников

   
 
Автор Сообщение

Ripodelnia Пол:Муж

07-Мар-2018 17:25

Ворон / The Crow


Год выпуска: 1994
Жанр: фэнтези, боевик, триллер
Страна: США
Режиссер: Алекс Пройас / Alex Proyas
В ролях: Брэндон Ли, Рошелль Дэвис, Эрни Хадсон, Майкл Уинкотт, Бай Лин, София Шинас, Анна Левайн, Дэвид Патрик Келли, Энджел Дэвид, Лоуренс Мэйсон
Сюжет фильма:
Это была мрачная и страшная ночь. Ночь жуткого праздника Хэллоуин. Банда насильников и убийц, ворвавшись в дом молодой пары, жестоко расправилась с рок-музыкантом Эриком и его невестой Шелли. Спустя год Эрик Дрэйвен выбирается из могилы и отправляется на поиски убийц. Человек ли он? Или Ворон, жаждущий возмездия?

  • Мировая премьера: 10 мая 1994
  • Российская премьера: 30 июля 2009, «Настроение Video»

   
Качество видео: BDRip-AVC (BDRemux 1080p | GER Transfer)

Продолжительность: 01:41:39
Формат: mkv
Видео: x264, 1032x576, 2121 kbps
Аудио #1: русский, многоголосый закадровый [лицензия, R5], AC3 5.1, 448 kbps
Аудио #2: английский, оригинал, AC3 5.1, 448 kbps

Аудио #3: русский, одноголосый закадровый [Гаврилов], AC3 5.1, 448 kbps (отдельно)
Аудио #4: русский, одноголосый закадровый [Пучков], AC3 5.1, 448 kbps (отдельно)
Аудио #5: русский, одноголосый закадровый [Горчаков], AC3 5.1, 448 kbps (отдельно)
Аудио #6: украинский, двухголосый закадровый, AC3 5.1, 448 kbps (отдельно)

Субтитры #1: вшитые отключаемые, S_TEXT/UTF8, русский (full)
Субтитры #2: вшитые отключаемые, S_TEXT/UTF8, английский (full)

Код:

General
Complete name                    : D:\Video\Ripodelnia\The.Crow.1994.BDRip.x264.Rus.Eng.Ripodelnia.mkv
Format                           : Matroska
File size                        : 2.19 GiB
Duration                         : 1h 41mn
Overall bit rate                 : 3 079 Kbps
Encoded date                     : UTC 2018-03-07 17:03:48
Writing application              : mkvmerge v20.0.0 ('I Am The Sun') 64-bit
Writing library                  : libebml v1.3.5 + libmatroska v1.4.8

Video
ID                               : 1
Format                           : AVC
Format/Info                      : Advanced Video Codec
Format profile                   : [email protected]
Format settings, CABAC           : Yes
Format settings, ReFrames        : 14 frames
Muxing mode                      : Container [email protected]
Codec ID                         : V_MPEG4/ISO/AVC
Duration                         : 1h 41mn
Bit rate                         : 2 122 Kbps
Nominal bit rate                 : 2 182 Kbps
Width                            : 1 032 pixels
Height                           : 576 pixels
Display aspect ratio             : 16/9
Frame rate                       : 23.976 fps
Resolution                       : 24 bits
Colorimetry                      : 4:2:0
Scan type                        : Progressive
Bits/(Pixel*Frame)               : 0.149
Stream size                      : 1.50 GiB (69%)
Title                            : Ripodelnia
Writing library                  : x264 core 155 r2901 7d0ff22
Encoding settings                : cabac=1 / ref=14 / deblock=1:-1:-1 / analyse=0x3:0x133 / me=umh / subme=11 / psy=1 / psy_rd=1.00:0.05 / mixed_ref=1 / me_range=48 / chroma_me=1 / trellis=2 / 8x8dct=1 / cqm=0 / deadzone=21,11 / fast_pskip=0 / chroma_qp_offset=-3 / threads=4 / lookahead_threads=1 / sliced_threads=0 / nr=0 / decimate=0 / interlaced=0 / bluray_compat=0 / constrained_intra=0 / bframes=16 / b_pyramid=2 / b_adapt=2 / b_bias=0 / direct=3 / weightb=1 / open_gop=0 / weightp=2 / keyint=240 / keyint_min=23 / scenecut=40 / intra_refresh=0 / rc_lookahead=60 / rc=2pass / mbtree=0 / bitrate=2182 / ratetol=1.0 / qcomp=0.70 / qpmin=0 / qpmax=69 / qpstep=4 / cplxblur=20.0 / qblur=0.5 / vbv_maxrate=50000 / vbv_bufsize=62500 / nal_hrd=none / filler=0 / ip_ratio=1.40 / pb_ratio=1.30 / aq=2:0.75

Audio #1
ID                               : 2
Format                           : AC-3
Format/Info                      : Audio Coding 3
Codec ID                         : A_AC3
Duration                         : 1h 41mn
Bit rate mode                    : Constant
Bit rate                         : 448 Kbps
Channel(s)                       : 6 channels
Channel positions                : Front: L C R, Surround: L R, LFE
Sampling rate                    : 48.0 KHz
Stream size                      : 326 MiB (15%)
Title                            : Russian (MVO, R5)
Language                         : Russian

Audio #2
ID                               : 3
Format                           : AC-3
Format/Info                      : Audio Coding 3
Codec ID                         : A_AC3
Duration                         : 1h 41mn
Bit rate mode                    : Constant
Bit rate                         : 448 Kbps
Channel(s)                       : 6 channels
Channel positions                : Front: L C R, Surround: L R, LFE
Sampling rate                    : 48.0 KHz
Stream size                      : 326 MiB (15%)
Title                            : English (Original)
Language                         : English

Text #1
ID                               : 4
Format                           : UTF-8
Codec ID                         : S_TEXT/UTF8
Codec ID/Info                    : UTF-8 Plain Text
Title                            : Russian (full)
Language                         : Russian

Text #2
ID                               : 5
Format                           : UTF-8
Codec ID                         : S_TEXT/UTF8
Codec ID/Info                    : UTF-8 Plain Text
Title                            : English (full)
Language                         : English

Menu
00:00:00.000                     : en:Chapter 01
00:07:16.602                     : en:Chapter 02
00:09:46.419                     : en:Chapter 03
00:18:49.461                     : en:Chapter 04
00:25:40.372                     : en:Chapter 05
00:31:38.021                     : en:Chapter 06
00:37:55.523                     : en:Chapter 07
00:44:27.539                     : en:Chapter 08
00:48:31.033                     : en:Chapter 09
00:51:53.860                     : en:Chapter 10
00:56:56.579                     : en:Chapter 11
00:59:33.903                     : en:Chapter 12
01:03:52.620                     : en:Chapter 13
01:09:20.573                     : en:Chapter 14
01:12:08.741                     : en:Chapter 15
01:19:17.043                     : en:Chapter 16
01:22:18.767                     : en:Chapter 17
01:34:11.479                     : en:Chapter 18
01:41:38.133                     : en:Chapter 19

Релиз группы: Ripodelnia

picpicpic
Для увеличения картинки щелкните мышкой по превью

Этот торрент недоступен для скачивания без регистрации, однако доступен по публичной magnet-ссылке (источники с публичных трекеров). Перед использованием ссылки прочтите, пожалуйста Пользовательское соглашение, а также как можно дольше оставайтесь на раздаче! Для того, чтобы скачать сам торрент-файл (который видит больше источников), а также для того, чтобы поблагодарить релизера, вам необходимо зарегистрироваться. Если регистрироваться лень - вы можете также попробовать скачать релиз по нашим партнерским ссылкам ниже. Кроме того, зарегистрированным пользователям не показывается всплывающая реклама при скачивании.

[underverse.me].t99317.torrent
Трекер: Зарегистрирован   [ 07.03.2018 17:25 ]  
Статус: проверено (by Паукан at 07.03.2018 17:31)
Поблагодарили: пока никто не поблагодарил...
Тип торрента: публичный - доступные источники с открытых трекеров: 
Размер: 2.19 GB (занимает 1/2 DVDR, для записи нужно 1 болванка DVDR/RW)
 
 

Яндекс.Метрика powered by Sphinx


В Н И М А Н И Е
Сайт не распространяет и не хранит электронные версии произведений, а лишь бесплатно и без коммерческой выгоды (не требуя взамен платы,
SMS и т.д.) предоставляет доступ к создаваемому пользователями каталогу ссылок на торрент-файлы, которые содержат только списки хеш-сумм.
Убедительная просьба с жалобами обращаться напрямую к пользователю, разместившему торрент файл.

Вверх