Loading...
Error

Спартак / Spartacus (Стэнли Кубрик / Stanley Kubrick) [1960 г., драма, приключения, военный, биография, история, экранизация, BDRip-AVC] MVO + Original (Eng) + Sub (Rus, Ukr, Eng) Ripodelnia

Статистика раздачи
Размер:  4.37 GB   |    Зарегистрирован:  4 года 6 месяцев   |    Скачан:  11 раз

Полного источника не было: 10 месяцев

Сидов:  0  |  0 KB/s  ]   Личеров:  0  |  0 KB/s  ]

* - сиды/пиры с внешних источников

   
 
Автор Сообщение

Ripodelnia Пол:Муж

24-Мар-2018 17:17

Спартак / Spartacus


Год выпуска: 1960
Жанр: драма, приключения, военный, биография, история, экранизация
Страна: США
Режиссер: Стэнли Кубрик / Stanley Kubrick
В ролях: Кирк Дуглас, Лоуренс Оливье, Джин Симмонс, Чарльз Лотон, Питер Устинов, Джон Гэвин, Нина Фош, Джон Айрленд, Херберт Лом, Джон Долл
Сюжет фильма:
Экранизация одноимённого романа Говарда Фаста. Спартак стал символом независимости и стремления к свободе. Будучи рабом, он поднял восстание против Римской империи. Спартак не мог смириться с тем, что ему, молодому и сильному мужчине, выпала судьба раба. Объединив вокруг себя таких же, как он, мечтавших о свободе гладиаторов, он решил сделать то, на что до него еще не решался никто – бросить вызов могучей Римской империи. Восстание Спартака потерпело поражение, но его пример вдохновлял людей всего мира на борьбу в течение многих столетий.

  • Мировая премьера: 6 октября 1960

 
Качество видео: BDRip-AVC

Продолжительность: 03:16:37
Формат: mkv
Видео: x264, 1056x480, 2225 kbps
Аудио #1: русский, многоголосый закадровый [профессиональный], AC3 5.1, 448 kbps
Аудио #2: английский, оригинал, AC3 5.1, 448 kbps
Субтитры #1: вшитые отключаемые, S_TEXT/UTF8, русский
Субтитры #2: вшитые отключаемые, S_TEXT/UTF8, украинский
Субтитры #3: вшитые отключаемые, S_TEXT/UTF8, английский

Код:

General
Complete name                    : D:\Video\Ripodelnia\Spartacus.1960.BDRip.x264.Rus.Eng.Ripodelnia.mkv
Format                           : Matroska
File size                        : 4.37 GiB
Duration                         : 3h 16mn
Overall bit rate                 : 3 184 Kbps
Encoded date                     : UTC 2018-03-24 16:58:41
Writing application              : mkvmerge v20.0.0 ('I Am The Sun') 64-bit
Writing library                  : libebml v1.3.5 + libmatroska v1.4.8

Video
ID                               : 1
Format                           : AVC
Format/Info                      : Advanced Video Codec
Format profile                   : [email protected]
Format settings, CABAC           : Yes
Format settings, ReFrames        : 14 frames
Muxing mode                      : Container [email protected]
Codec ID                         : V_MPEG4/ISO/AVC
Duration                         : 3h 16mn
Bit rate                         : 2 225 Kbps
Nominal bit rate                 : 2 286 Kbps
Width                            : 1 056 pixels
Height                           : 480 pixels
Display aspect ratio             : 2.2
Frame rate                       : 23.976 fps
Resolution                       : 24 bits
Colorimetry                      : 4:2:0
Scan type                        : Progressive
Bits/(Pixel*Frame)               : 0.183
Stream size                      : 3.05 GiB (70%)
Title                            : Ripodelnia
Writing library                  : x264 core 155 r2901 7d0ff22
Encoding settings                : cabac=1 / ref=14 / deblock=1:-2:-2 / analyse=0x3:0x133 / me=umh / subme=11 / psy=1 / psy_rd=0.96:0.05 / mixed_ref=1 / me_range=48 / chroma_me=1 / trellis=2 / 8x8dct=1 / cqm=0 / deadzone=21,11 / fast_pskip=0 / chroma_qp_offset=-3 / threads=4 / lookahead_threads=1 / sliced_threads=0 / nr=0 / decimate=0 / interlaced=0 / bluray_compat=0 / constrained_intra=0 / bframes=16 / b_pyramid=2 / b_adapt=2 / b_bias=0 / direct=3 / weightb=1 / open_gop=0 / weightp=2 / keyint=240 / keyint_min=23 / scenecut=40 / intra_refresh=0 / rc_lookahead=60 / rc=2pass / mbtree=0 / bitrate=2286 / ratetol=1.0 / qcomp=0.70 / qpmin=0 / qpmax=69 / qpstep=4 / cplxblur=20.0 / qblur=0.5 / vbv_maxrate=50000 / vbv_bufsize=62500 / nal_hrd=none / filler=0 / ip_ratio=1.40 / pb_ratio=1.30 / aq=2:0.80

Audio #1
ID                               : 2
Format                           : AC-3
Format/Info                      : Audio Coding 3
Codec ID                         : A_AC3
Duration                         : 3h 16mn
Bit rate mode                    : Constant
Bit rate                         : 448 Kbps
Channel(s)                       : 6 channels
Channel positions                : Front: L C R, Surround: L R, LFE
Sampling rate                    : 48.0 KHz
Stream size                      : 630 MiB (14%)
Title                            : Russian (MVO)
Language                         : Russian

Audio #2
ID                               : 3
Format                           : AC-3
Format/Info                      : Audio Coding 3
Codec ID                         : A_AC3
Duration                         : 3h 16mn
Bit rate mode                    : Constant
Bit rate                         : 448 Kbps
Channel(s)                       : 6 channels
Channel positions                : Front: L C R, Surround: L R, LFE
Sampling rate                    : 48.0 KHz
Stream size                      : 630 MiB (14%)
Title                            : English (Original)
Language                         : English

Text #1
ID                               : 4
Format                           : UTF-8
Codec ID                         : S_TEXT/UTF8
Codec ID/Info                    : UTF-8 Plain Text
Title                            : Russian (full)
Language                         : Russian

Text #2
ID                               : 5
Format                           : UTF-8
Codec ID                         : S_TEXT/UTF8
Codec ID/Info                    : UTF-8 Plain Text
Title                            : Ukrainian (full)
Language                         : Ukrainian

Text #3
ID                               : 6
Format                           : UTF-8
Codec ID                         : S_TEXT/UTF8
Codec ID/Info                    : UTF-8 Plain Text
Title                            : English (full)
Language                         : English

Menu
00:00:00.000                     : en:Overture
00:04:03.368                     : en:Main Titles
00:07:44.547                     : en:A Disease Called Human Slavery
00:14:04.969                     : en:The Gladiatorial School
00:19:04.935                     : en:Varinia
00:31:55.872                     : en:Marcus Licinius Crassus
00:43:12.840                     : en:A Fight to the Death
00:53:02.971                     : en:Rebellion
01:01:46.494                     : en:Antoninus
01:20:17.980                     : en:Snails and Oysters
01:41:46.392                     : en:Routing The Romans
01:47:55.094                     : en:Entr'acte
01:50:17.384                     : en:Glabrus Is Sentenced
01:58:17.894                     : en:A Baby!
02:10:43.252                     : en:Betrayed
02:30:02.118                     : en:The Battle
02:39:35.103                     : en:"I Am Spartacus"
02:45:30.087                     : en:"a Bad Attack of Dignity"
02:51:55.090                     : en:Crassus Woos Varinia
03:00:56.304                     : en:Revealing the Rebel
03:10:08.856                     : en:At The Gates of Rome
03:13:42.395                     : en:The End

Релиз группы: Ripodelnia

picpicpic
Для увеличения картинки щелкните мышкой по превью

Этот торрент недоступен для скачивания без регистрации, однако доступен по публичной magnet-ссылке (источники с публичных трекеров). Перед использованием ссылки прочтите, пожалуйста Пользовательское соглашение, а также как можно дольше оставайтесь на раздаче! Для того, чтобы скачать сам торрент-файл (который видит больше источников), а также для того, чтобы поблагодарить релизера, вам необходимо зарегистрироваться. Если регистрироваться лень - вы можете также попробовать скачать релиз по нашим партнерским ссылкам ниже. Кроме того, зарегистрированным пользователям не показывается всплывающая реклама при скачивании.

[underverse.me].t100721.torrent
Трекер: Зарегистрирован   [ 24.03.2018 17:17 ]  
Статус: проверено (by Паукан at 24.03.2018 17:19)
Поблагодарили: 1 человек
Тип торрента: публичный - доступные источники с открытых трекеров: 
Размер: 4.37 GB (занимает 1 DVDR, для записи нужно 1 болванка DVDR/RW)
 
 

Яндекс.Метрика powered by Sphinx


В Н И М А Н И Е
Сайт не распространяет и не хранит электронные версии произведений, а лишь бесплатно и без коммерческой выгоды (не требуя взамен платы,
SMS и т.д.) предоставляет доступ к создаваемому пользователями каталогу ссылок на торрент-файлы, которые содержат только списки хеш-сумм.
Убедительная просьба с жалобами обращаться напрямую к пользователю, разместившему торрент файл.

Вверх